Marvel's Avengers Deluxe Edition (супер цена) 159р. Внимание количество ограничено!!!

2 сезон

iTunes

iTunes

1

iTunes

iTunes

iTunes

WEBRip

iTunes

30
pack

Новость дня

ВАЖНО

!!Акция!!

Alien_RageХит недели

RePack

Horizon Zero Dawn

ИГРА 18+

pack

RePack

jed

!!Акция!!

Alien_Rage

RePack

fifa19

RePack

Assassins Creed: Odyssey

RePack

NEED FOR SPEED™ PAYBACK

4 сезон

9 сезон

Бесстыжие 9 сезон

Все сериалы

все сериалы на PB.wtf

RePack

FAR CRY 5
  

Русалочка / The Little Mermaid (Рон Клементс, Джон Маскер) [1989, мультфильм, мюзикл, фэнтези, UHD BDRip 2160p] [SDR] DUB [Лицензия] piratbit.pw

Русалочка через торрент piratbit.pw

Размер: 14.86 GB | Добавлен: 1 год 6 мес. назад | Торрент скачан:31 раз
Скачать  

12-03-2019 10:10 Русалочка Скачать торрент  

Русалочка / The Little Mermaid««Love has no boundaries»»

Год выпуска: 1989
Страна: США
Жанр: мультфильм, мюзикл, фэнтези, мелодрама, семейный
Продолжительность: 01:22:50
Перевод: Дублированный [Лицензия]
Субтитры: Русские, английские
Режиссер: Рон Клементс , Джон Маскер
В ролях:

Джоди Бенсон (Ariel, озвучка), Пэт Кэрролл (Ursula, озвучка), Рене Обержонуа (Louis, озвучка), Кристофер Дэниэл Барнс (Eric, озвучка), Пэдди Эдвардс (Flotsam & Jetsam, озвучка), Бадди Хэкетт (Scuttle, озвучка), Джейсон Марин (Flounder, озвучка), Кеннет Марс (Triton, озвучка), Эди МакКлёрг (Carlotta, озвучка), Уилл Райан (Seahorse, озвучка), Бен Райт (Grimsby, озвучка), Сэмюэл Э. Райт (Sebastian, озвучка)
Описание:
Таинственные глубины моря хранят немало тайн, а обитатели океана могут рассказать множество удивительных историй. И самой невероятной из них была и остаётся история русалочки Ариэль. Дочь могущественного царя подводного мира Тритона, она однажды влюбляется в прекрасного и мужественного принца. Но разве они могут быть вместе - земной человек и морская дева? Однако настоящие чувства преодолевают любые преграды. Ради своей любви Ариэль готова пойти на всё. Даже если для обретения своего счастья ей навсегда придётся покинуть родной океан и навеки стать земной девушкой...
Рейтинг:

MPAA: G - Нет возрастных ограничений
Качество: UHD BDRip 2160p | SDR
Формат: MKV
Видео: HEVC, 16000 Кбит/с, 3840x2160, 23.976 кадр/с, 10 бит
Аудио №1: Русский / AC3 / 48 KHz / 5.1 ch / 640 Kbps (Дубляж - BD CEE)
Аудио №2: Английский / Dolby TrueHD/ 48 KHz / 7.1 ch / 8255 Kbps (Original)
Аудио №3: Английский / AC3 / 48 KHz / 5.1 ch / 640 Kbps (Original)
Навигация по главам: есть
Общее
Уникальный идентификатор : 198038561040204992638683410354571684838 (0x94FCD6E87E54ED67ADD1E7A55F49ABE6)
Полное имя : D:\Мои раздачи\Передел\The.Little.Mermaid.1989.2160p.BDRip.x265.10bit.SDR.Master5.mkv
Формат : Matroska
Версия формата : Version 4 / Version 2
Размер файла : 14,9 Гбайт
Продолжительность : 1 ч. 22 м.
Режим общего битрейта : Переменный
Общий поток : 25,7 Мбит/сек
Название фильма : The.Little.Mermaid.1989.2160p.BDRip.x265.10bit.SDR.Master5
Дата кодирования : UTC 2019-02-26 10:54:48
Программа кодирования : mkvmerge v7.9.0 ('Birds') 64bit
Библиотека кодирования : libebml v1.3.1 + libmatroska v1.4.2
Обложка : Yes
Attachments : cover_land.jpg / small_cover.jpg / small_cover_land.jpg / cover.jpg

Видео
Идентификатор : 1
Формат : HEVC
Формат/Информация : High Efficiency Video Coding
Профиль формата : Main 10@L5.1@High
Идентификатор кодека : V_MPEGH/ISO/HEVC
Продолжительность : 1 ч. 22 м.
Битрейт : 16,0 Мбит/сек
Ширина : 3840 пикселей
Высота : 2160 пикселей
Соотношение сторон : 16:9
Режим частоты кадров : Постоянный
Частота кадров : 23,976 (24000/1001) кадра/сек
Цветовое пространство : YUV
Субдискретизация насыщенности : 4:2:0
Битовая глубина : 10 бит
Бит/(Пиксели*Кадры) : 0.080
Размер потока : 9,25 Гбайт (62%)
Заголовок : The.Little.Mermaid.1989.2160p.BDRip.x265.10bit.SDR.Master5
Библиотека кодирования : x265 3.0+1-ed72af837053:[Windows][GCC 8.2.0][64 bit] 10bit
Настройки программы : cpuid=1111039 / frame-threads=16 / numa-pools=24,24,24,24 / wpp / no-pmode / no-pme / no-psnr / no-ssim / log-level=2 / input-csp=1 / input-res=3840x2160 / interlace=0 / total-frames=119172 / level-idc=51 / high-tier=1 / uhd-bd=0 / ref=3 / no-allow-non-conformance / repeat-headers / annexb / aud / hrd / info / hash=0 / no-temporal-layers / no-open-gop / min-keyint=1 / keyint=24 / gop-lookahead=0 / bframes=6 / b-adapt=2 / b-pyramid / bframe-bias=0 / rc-lookahead=25 / lookahead-slices=4 / scenecut=40 / radl=0 / no-splice / no-intra-refresh / ctu=64 / min-cu-size=8 / no-rect / no-amp / max-tu-size=32 / tu-inter-depth=1 / tu-intra-depth=1 / limit-tu=0 / rdoq-level=0 / dynamic-rd=0.00 / no-ssim-rd / signhide / no-tskip / nr-intra=0 / nr-inter=0 / no-constrained-intra / strong-intra-smoothing / max-merge=2 / limit-refs=3 / no-limit-modes / me=1 / subme=2 / merange=57 / temporal-mvp / weightp / no-weightb / no-analyze-src-pics / deblock=1:1 / no-sao / no-sao-non-deblock / rd=3 / no-early-skip / rskip / no-fast-intra / no-tskip-fast / no-cu-lossless / no-b-intra / no-splitrd-skip / rdpenalty=0 / psy-rd=0.40 / psy-rdoq=0.00 / no-rd-refine / no-lossless / cbqpoffs=0 / crqpoffs=0 / rc=crf / crf=16.0 / qcomp=0.60 / qpstep=4 / stats-write=0 / stats-read=0 / vbv-maxrate=160000 / vbv-bufsize=160000 / vbv-init=0.9 / crf-max=0.0 / crf-min=0.0 / ipratio=1.40 / pbratio=1.30 / aq-mode=1 / aq-strength=0.40 / cutree / zone-count=0 / no-strict-cbr / qg-size=32 / no-rc-grain / qpmax=69 / qpmin=0 / no-const-vbv / sar=1 / overscan=0 / videoformat=5 / range=0 / colorprim=2 / transfer=2 / colormatrix=2 / chromaloc=0 / display-window=0 / max-cll=0,0 / min-luma=0 / max-luma=1023 / log2-max-poc-lsb=8 / vui-timing-info / vui-hrd-info / slices=1 / opt-qp-pps / opt-ref-list-length-pps / no-multi-pass-opt-rps / scenecut-bias=0.05 / no-opt-cu-delta-qp / no-aq-motion / no-hdr / no-hdr-opt / no-dhdr10-opt / no-idr-recovery-sei / analysis-reuse-level=5 / scale-factor=0 / refine-intra=0 / refine-inter=0 / refine-mv=0 / refine-ctu-distortion=0 / no-limit-sao / ctu-info=0 / no-lowpass-dct / refine-analysis-type=0 / copy-pic=1 / max-ausize-factor=1.0 / no-dynamic-refine / no-single-sei / no-hevc-aq / qp-adaptation-range=1.00
Default : Да
Forced : Нет

Аудио #1
Идентификатор : 2
Формат : AC-3
Формат/Информация : Audio Coding 3
Идентификатор кодека : A_AC3
Продолжительность : 1 ч. 22 м.
Вид битрейта : Постоянный
Битрейт : 640 Кбит/сек
Каналы : 6 каналов
Расположение каналов : Front: L C R, Side: L R, LFE
Частота : 48,0 КГц
Частота кадров : 31,250 кадров/сек (1536 SPF)
Битовая глубина : 16 бит
Метод сжатия : С потерями
Размер потока : 379 Мбайт (2%)
Заголовок : Дубляж - BD CEE
Язык : Russian
ServiceKind/String : Complete Main
Default : Да
Forced : Нет

Аудио #2
Идентификатор : 3
Формат : TrueHD
Профиль формата : TrueHD+Atmos / TrueHD
Идентификатор кодека : A_TRUEHD
Продолжительность : 1 ч. 22 м.
Вид битрейта : Переменный
Битрейт : 8255 Кбит/сек
Максимальный битрейт : 11,7 Мбит/сек
Каналы : Object Based / 8 каналов
Расположение каналов : Object Based / Front: L C R, Side: L R, Back: L R, LFE
Частота : / 48,0 КГц
Частота кадров : 1200,000 кадров/сек (40 SPF)
Метод сжатия : Без потерь
Размер потока : 4,78 Гбайт (32%)
Заголовок : TrueHD Atmos 7.1
Язык : English
Default : Нет
Forced : Нет

Аудио #3
Идентификатор : 4
Формат : AC-3
Формат/Информация : Audio Coding 3
Идентификатор кодека : A_AC3
Продолжительность : 1 ч. 22 м.
Вид битрейта : Постоянный
Битрейт : 640 Кбит/сек
Каналы : 6 каналов
Расположение каналов : Front: L C R, Side: L R, LFE
Частота : 48,0 КГц
Частота кадров : 31,250 кадров/сек (1536 SPF)
Битовая глубина : 16 бит
Метод сжатия : С потерями
Размер потока : 379 Мбайт (2%)
Заголовок : AC3 5.1
Язык : English
ServiceKind/String : Complete Main
Default : Нет
Forced : Нет

Текст #1
Идентификатор : 5
Формат : PGS
Режим смешивания : zlib
Идентификатор кодека : S_HDMV/PGS
Идентификатор кодека/Информация : Picture based subtitle format used on BDs/HD-DVDs
Продолжительность : 1 ч. 16 м.
Битрейт : 10,3 Кбит/сек
ElementCount : 1856
Размер потока : 5,67 Мбайт (0%)
Заголовок : Russian
Язык : Russian
Default : Да
Forced : Да

Текст #2
Идентификатор : 6
Формат : PGS
Режим смешивания : zlib
Идентификатор кодека : S_HDMV/PGS
Идентификатор кодека/Информация : Picture based subtitle format used on BDs/HD-DVDs
Продолжительность : 1 ч. 16 м.
Битрейт : 3112 бит/сек
ElementCount : 512
Размер потока : 1,71 Мбайт (0%)
Заголовок : Russian (Sing-Along)
Язык : Russian
Default : Нет
Forced : Нет

Текст #3
Идентификатор : 7
Формат : PGS
Режим смешивания : zlib
Идентификатор кодека : S_HDMV/PGS
Идентификатор кодека/Информация : Picture based subtitle format used on BDs/HD-DVDs
Продолжительность : 1 ч. 22 м.
Битрейт : 26,5 Кбит/сек
ElementCount : 3418
Размер потока : 15,6 Мбайт (0%)
Заголовок : Russian (Commentary)
Язык : Russian
Default : Нет
Forced : Нет

Текст #4
Идентификатор : 8
Формат : PGS
Режим смешивания : zlib
Идентификатор кодека : S_HDMV/PGS
Идентификатор кодека/Информация : Picture based subtitle format used on BDs/HD-DVDs
Продолжительность : 1 ч. 16 м.
Битрейт : 10,4 Кбит/сек
ElementCount : 1910
Размер потока : 5,69 Мбайт (0%)
Заголовок : English
Язык : English
Default : Нет
Forced : Нет

Текст #5
Идентификатор : 9
Формат : PGS
Режим смешивания : zlib
Идентификатор кодека : S_HDMV/PGS
Идентификатор кодека/Информация : Picture based subtitle format used on BDs/HD-DVDs
Продолжительность : 1 ч. 16 м.
Битрейт : 3155 бит/сек
ElementCount : 504
Размер потока : 1,73 Мбайт (0%)
Заголовок : English (Sing-Along)
Язык : English
Default : Нет
Forced : Нет

Текст #6
Идентификатор : 10
Формат : PGS
Режим смешивания : zlib
Идентификатор кодека : S_HDMV/PGS
Идентификатор кодека/Информация : Picture based subtitle format used on BDs/HD-DVDs
Продолжительность : 1 ч. 22 м.
Битрейт : 26,8 Кбит/сек
ElementCount : 3430
Размер потока : 15,8 Мбайт (0%)
Заголовок : English (Commentary)
Язык : English
Default : Нет
Forced : Нет

Меню
00:00:00.000 : en:"Fathoms Below"
00:02:18.680 : en:Main Titles
00:03:48.019 : en:Sebastian's Concert
00:05:52.477 : en:The Sunken Ship
00:08:56.870 : en:Scuttle
00:10:49.816 : en:Ursula Watches Ariel
00:15:02.193 : en:"Part of Your World"
00:19:05.519 : en:To the Surface
00:22:19.296 : en:Storm at Sea
00:25:16.557 : en:Eric is Saved
00:29:07.079 : en:"Under the Sea"
00:32:56.892 : en:Sebastian and King Triton
00:34:22.310 : en:Ariel's Hidden Treasure
00:38:49.994 : en:Ursula's Lair
00:40:01.524 : en:"Poor Unfortunate Souls"
00:41:39.247 : en:Ursula's Deal
00:45:43.449 : en:In Eric's Kingdom
00:50:57.888 : en:Dinner in the Castle
00:52:23.390 : en:"Les Poissons"
00:57:22.606 : en:A Tour of the Kingdom
00:59:36.782 : en:"Kiss the Girl"
01:02:30.038 : en:Ursula Takes Charge
01:05:46.484 : en:The Wedding Ship
01:10:05.576 : en:Sunset on the Third Day
01:12:49.574 : en:Ursula's Wrath
01:15:33.988 : en:Happy Ending
01:18:20.237 : en:End Credits
piratbit.pw



Скачать Русалочка через торрент https://c.radikal.ru/c32/1903/7b/becd47152d05.png Скачать фильм Русалочка через торрент бесплантно в хорошем качестве Описание: Таинственные глубины моря хранят немало тайн, а обитатели океана могут рассказать множество удивительных историй. И самой ... 10 10 1
Торрент: Зарегистрирован [2019-03-12 10:10] · скачан: 31 раз
Статус: √ проверено
Размер: 14.86 GB
Как cкачать? Как скачать Русалочка через торрент | qTorrent

% Раздел Тема Автор DL S | L
Фильмы (WEB-DL 720p, 1080p) [ 3.36 GB ] Рассказы Русалочки / The Little Mermaid [2018 WEB-DL 1080p] [AMAZON Version] bober100 Скачать
2 | 0
T Фильмы (мультфильмы) cо спонсором показа (Новинки AVI/MKV) [ 3.52 GB ] Рассказы Русалочки / The Little Mermaid [2018 WEB-DL 720p] DUB [Line] bober100 Скачать
2 | 0
Фильмы 2018 [DVDrip, WEB-DLRip, HDrip] (DUB, MVO) [ 1.37 GB ] Рассказы Русалочки / The Little Mermaid [2018 WEB-DLRip] bober100 Скачать
1 | 0
Ultra HD (UHD: 2K, 4K, 8K) [ 10.45 GB ] Русалочка / The Little Mermaid [1989 Мультфильм мюзикл UHD BDRip 2160p] DUB [ BD CEE] bober100 Скачать
1 | 0
Ultra HD (UHD: 2K, 4K, 8K) [ 50.22 GB ] Русалочка / The Little Mermaid [1989 Мультфильм мюзикл UHD BDRemux 2160p] DUB [ BD CEE] bober100 Скачать
1 | 0
Иностранные мультфильмы [ 700 MB ] Русалочка 2: Возвращение в море / The Little Mermaid II: Return to the Sea [2000 мюзикл мультфильм DVDRip] Anonymous Скачать
1 | 0

28-11-2019 20:33  

Отключить всю рекламу на сайте

    Дорогой пользователь! Огромная просьба, поблагодарите релизера, оцените раздачу и оставьте свои комментарий, если Вы скачали Русалочка через торрент бесплатно! Внесите свою лепту в развитие PiratBit!
    Комментировать посты могут только пользователи прошедшие не сложную регистрацию
    Показать сообщения:    

    Русалочка через торрент
    Скачать бесплатно Русалочка
    Русалочка скачать торрент
    Русалочка смотреть онлайн
    Cкачать фильм Русалочка бесплатно
    Русалочка скачать торрент в хорошем качестве
    Русалочка смотреть онлайн бесплатно в хорошем качестве


    Вы не можете начинать темы
    Вы не можете отвечать на сообщения
    Вы не можете редактировать свои сообщения
    Вы не можете удалять свои сообщения
    Вы не можете голосовать в опросах
    Вы не можете прикреплять файлы к сообщениям
    Вы можете скачивать файлы