Marvel's Avengers Deluxe Edition (супер цена) 159р. Внимание количество ограничено!!!

2 сезон

iTunes

iTunes

1

iTunes

iTunes

iTunes

WEBRip

iTunes

30
pack

Новость дня

ВАЖНО

!!Акция!!

Alien_RageХит недели

RePack

Horizon Zero Dawn

ИГРА 18+

pack

RePack

jed

!!Акция!!

Alien_Rage

RePack

fifa19

RePack

Assassins Creed: Odyssey

RePack

NEED FOR SPEED™ PAYBACK

4 сезон

9 сезон

Бесстыжие 9 сезон

Все сериалы

все сериалы на PB.wtf

RePack

FAR CRY 5
  

Человек-паук: Через вселенные / Spider-Man: Into the Spider-Verse (Боб Персичетти, Питер Рэмзи, Родни Ротман) [2018, мультфильм, фантастика, боевик, UHD BDRip 2160p] [SDR] DUB (rus, ukr) [Лицензия] piratbit.pw

Человек-паук: Через вселенные через торрент piratbit.pw

Размер: 26.09 GB | Добавлен: 1 год 5 мес. назад | Торрент скачан:42 раза
Скачать  

12-03-2019 03:56 Человек-паук: Через вселенные Скачать торрент  

Человек-паук: Через вселенные / Spider-Man: Into the Spider-Verse««Enter a universe where more than one wears the mask»»

Год выпуска: 2018
Страна: США
Жанр: мультфильм, фантастика, боевик, приключения, семейный
Продолжительность: 01:56:50
Перевод: Дублированный | Лицензия
Субтитры: Русские, английские, украинские
Режиссер: Боб Персичетти , Питер Рэмзи , Родни Ротман
В ролях:

Шамеик Мур (Miles Morales, озвучка), Джейк Джонсон (Peter B. Parker, озвучка), Хейли Стайнфелд (Gwen Stacy, озвучка), Махершала Али (Uncle Aaron, озвучка), Брайан Тайри Генри (Jefferson Davis, озвучка), Лили Томлин (Aunt May, озвучка), Луна Лорен Велес (Rio Morales, озвучка), Зои Кравиц (Mary Jane, озвучка), Джон Малэйни (Spider-Ham, озвучка), Кимико Гленн (Peni Parker, озвучка), Николас Кейдж (Spider-Man Noir, озвучка), Кэтрин Хан (Doc Ock, озвучка)
Описание:
Мы всё знаем о Питере Паркере. Он спас город, влюбился, а потом спасал город снова и снова... Но все это - в нашем измерении. А что если в результате работы гигантского коллайдера откроется окно из одного измерения в другое? Найдется ли в нем свой Человек-паук? И как он будет выглядеть? Приготовьтесь к тому, что в разных вселенных могут быть разные Люди-пауки и однажды им придется собраться вместе для борьбы с почти непобедимым врагом.
Рейтинг:

MPAA: PG - Рекомендуется присутствие родителей
Качество: UHD BDRip 2160p | SDR
Формат: MKV
Видео: HEVC, 26700 Kбит/с, 3840x1608, 23.976 кадр/с, 10 Бит
Аудио: Русский / AC3 / 48 KHz / 5.1 ch / 640 Kbps (Дубляж - Лицензия)
Аудио: Украинский / AC3 / 48 KHz / 5.1 ch / 640 Kbps (Дубляж - Лицензия)
Аудио: Английский / TrueHD+Atmos / 48 KHz / 7.1 ch / 3267 Kbps (Original)
Аудио: Английский / AC3 / 48 KHz / 5.1 ch / 640 Kbps (Original)
Навигация по главам: есть

Общее
Уникальный идентификатор : 186243056852955313365043173231648199189 (0x8C1D1BA6B8EFEF4FBA03A36DE6665215)
Полное имя : D:\Передел_2\Spider-Man.Into.the.Spider-Verse.2018.2160p.UHD.BDRip.x265.10bit.SDR.Master5.mkv
Формат : Matroska
Версия формата : Version 4
Размер файла : 26,1 Гбайт
Продолжительность : 1 ч. 56 м.
Режим общего битрейта : Переменный
Общий поток : 32,0 Мбит/сек
Название фильма : Spider-Man.Into.the.Spider-Verse.2018.2160p.UHD.BDRip.x265.10bit.SDR.Master5
Дата кодирования : UTC 2019-04-13 19:03:01
Программа кодирования : mkvmerge v7.9.0 ('Birds') 64bit
Библиотека кодирования : libebml v1.3.1 + libmatroska v1.4.2

Видео
Идентификатор : 1
Формат : HEVC
Формат/Информация : High Efficiency Video Coding
Профиль формата : Main 10@L5.1@High
Идентификатор кодека : V_MPEGH/ISO/HEVC
Продолжительность : 1 ч. 56 м.
Битрейт : 26,7 Мбит/сек
Ширина : 3840 пикселей
Высота : 1608 пикселей
Соотношение сторон : 2,40:1
Режим частоты кадров : Постоянный
Частота кадров : 23,976 (24000/1001) кадра/сек
Цветовое пространство : YUV
Субдискретизация насыщенности : 4:2:0
Битовая глубина : 10 бит
Бит/(Пиксели*Кадры) : 0.180
Размер потока : 21,8 Гбайт (84%)
Заголовок : Spider-Man.Into.the.Spider-Verse.2018.2160p.UHD.BDRip.x265.10bit.SDR.Master5
Библиотека кодирования : x265 3.0+1-ed72af837053:[Windows][GCC 8.2.0][64 bit] 10bit
Настройки программы : cpuid=1111039 / frame-threads=16 / numa-pools=16,16 / wpp / no-pmode / no-pme / no-psnr / no-ssim / log-level=2 / input-csp=1 / input-res=3840x1608 / interlace=0 / total-frames=168073 / level-idc=51 / high-tier=1 / uhd-bd=0 / ref=3 / no-allow-non-conformance / repeat-headers / annexb / aud / hrd / info / hash=0 / no-temporal-layers / no-open-gop / min-keyint=1 / keyint=24 / gop-lookahead=0 / bframes=6 / b-adapt=2 / b-pyramid / bframe-bias=0 / rc-lookahead=25 / lookahead-slices=4 / scenecut=40 / radl=0 / no-splice / no-intra-refresh / ctu=64 / min-cu-size=8 / no-rect / no-amp / max-tu-size=32 / tu-inter-depth=1 / tu-intra-depth=1 / limit-tu=0 / rdoq-level=0 / dynamic-rd=0.00 / no-ssim-rd / signhide / no-tskip / nr-intra=0 / nr-inter=0 / no-constrained-intra / strong-intra-smoothing / max-merge=2 / limit-refs=3 / no-limit-modes / me=1 / subme=2 / merange=57 / temporal-mvp / weightp / no-weightb / no-analyze-src-pics / deblock=1:1 / no-sao / no-sao-non-deblock / rd=3 / no-early-skip / rskip / no-fast-intra / no-tskip-fast / no-cu-lossless / no-b-intra / no-splitrd-skip / rdpenalty=0 / psy-rd=0.40 / psy-rdoq=0.00 / no-rd-refine / no-lossless / cbqpoffs=0 / crqpoffs=0 / rc=crf / crf=16.0 / qcomp=0.60 / qpstep=4 / stats-write=0 / stats-read=0 / vbv-maxrate=160000 / vbv-bufsize=160000 / vbv-init=0.9 / crf-max=0.0 / crf-min=0.0 / ipratio=1.40 / pbratio=1.30 / aq-mode=1 / aq-strength=0.40 / cutree / zone-count=0 / no-strict-cbr / qg-size=32 / no-rc-grain / qpmax=69 / qpmin=0 / no-const-vbv / sar=1 / overscan=0 / videoformat=5 / range=0 / colorprim=2 / transfer=2 / colormatrix=2 / chromaloc=0 / display-window=0 / max-cll=0,0 / min-luma=0 / max-luma=1023 / log2-max-poc-lsb=8 / vui-timing-info / vui-hrd-info / slices=1 / opt-qp-pps / opt-ref-list-length-pps / no-multi-pass-opt-rps / scenecut-bias=0.05 / no-opt-cu-delta-qp / no-aq-motion / no-hdr / no-hdr-opt / no-dhdr10-opt / no-idr-recovery-sei / analysis-reuse-level=5 / scale-factor=0 / refine-intra=0 / refine-inter=0 / refine-mv=0 / refine-ctu-distortion=0 / no-limit-sao / ctu-info=0 / no-lowpass-dct / refine-analysis-type=0 / copy-pic=1 / max-ausize-factor=1.0 / no-dynamic-refine / no-single-sei / no-hevc-aq / qp-adaptation-range=1.00
Язык : English
Default : Да
Forced : Нет

Аудио #1
Идентификатор : 2
Формат : AC-3
Формат/Информация : Audio Coding 3
Коммерческое название : Dolby Digital
Идентификатор кодека : A_AC3
Продолжительность : 1 ч. 56 м.
Вид битрейта : Постоянный
Битрейт : 640 Кбит/сек
Каналы : 6 каналов
Channel layout : L R C LFE Ls Rs
Частота : 48,0 КГц
Частота кадров : 31,250 кадров/сек (1536 SPF)
Битовая глубина : 16 бит
Метод сжатия : С потерями
Размер потока : 535 Мбайт (2%)
Заголовок : Дубляж (BD CEE)
Язык : Russian
ServiceKind/String : Complete Main
Default : Да
Forced : Нет

Аудио #2
Идентификатор : 3
Формат : AC-3
Формат/Информация : Audio Coding 3
Коммерческое название : Dolby Digital
Идентификатор кодека : A_AC3
Продолжительность : 1 ч. 56 м.
Вид битрейта : Постоянный
Битрейт : 640 Кбит/сек
Каналы : 6 каналов
Channel layout : L R C LFE Ls Rs
Частота : 48,0 КГц
Частота кадров : 31,250 кадров/сек (1536 SPF)
Битовая глубина : 16 бит
Метод сжатия : С потерями
Размер потока : 535 Мбайт (2%)
Заголовок : Дубляж (BD CEE)
Язык : Ukrainian
ServiceKind/String : Complete Main
Default : Нет
Forced : Нет

Аудио #3
Идентификатор : 4
Формат : MLP FBA 16-ch
Формат/Информация : Meridian Lossless Packing FBA with 16-channel presentation
Коммерческое название : Dolby TrueHD with Dolby Atmos
Идентификатор кодека : A_TRUEHD
Продолжительность : 1 ч. 56 м.
Вид битрейта : Переменный
Битрейт : 3267 Кбит/сек
Максимальный битрейт : 4935 Кбит/сек
Каналы : 8 каналов
Channel layout : L R C LFE Ls Rs Lb Rb
Частота : 48,0 КГц
Частота кадров : 1200,000 кадров/сек (40 SPF)
Метод сжатия : Без потерь
Задержка видео : 8 мс.
Размер потока : 2,67 Гбайт (10%)
Заголовок : Original
Язык : English
Default : Нет
Forced : Нет
Number of dynamic objects : 11
Bed channel count : 1 канал
Bed channel configuration : LFE

Аудио #4
Идентификатор : 5
Формат : AC-3
Формат/Информация : Audio Coding 3
Коммерческое название : Dolby Digital
Идентификатор кодека : A_AC3
Продолжительность : 1 ч. 56 м.
Вид битрейта : Постоянный
Битрейт : 640 Кбит/сек
Каналы : 6 каналов
Channel layout : L R C LFE Ls Rs
Частота : 48,0 КГц
Частота кадров : 31,250 кадров/сек (1536 SPF)
Битовая глубина : 16 бит
Метод сжатия : С потерями
Размер потока : 535 Мбайт (2%)
Заголовок : Original
Язык : English
ServiceKind/String : Complete Main
Default : Нет
Forced : Нет

Текст #1
Идентификатор : 6
Формат : UTF-8
Идентификатор кодека : S_TEXT/UTF8
Идентификатор кодека/Информация : UTF-8 Plain Text
Продолжительность : 1 ч. 55 м.
Битрейт : 2 бит/сек
ElementCount : 60
Размер потока : 2,19 Кбайт (0%)
Заголовок : Форсированные
Язык : Russian
Default : Да
Forced : Нет

Текст #2
Идентификатор : 7
Формат : UTF-8
Идентификатор кодека : S_TEXT/UTF8
Идентификатор кодека/Информация : UTF-8 Plain Text
Продолжительность : 1 ч. 55 м.
Битрейт : 82 бит/сек
ElementCount : 1467
Размер потока : 70,3 Кбайт (0%)
Заголовок : Полные
Язык : Russian
Default : Нет
Forced : Нет

Текст #3
Идентификатор : 8
Формат : UTF-8
Идентификатор кодека : S_TEXT/UTF8
Идентификатор кодека/Информация : UTF-8 Plain Text
Продолжительность : 1 ч. 55 м.
Битрейт : 1 бит/сек
ElementCount : 42
Размер потока : 1,33 Кбайт (0%)
Заголовок : Форсированные
Язык : Ukrainian
Default : Нет
Forced : Нет

Текст #4
Идентификатор : 9
Формат : UTF-8
Идентификатор кодека : S_TEXT/UTF8
Идентификатор кодека/Информация : UTF-8 Plain Text
Продолжительность : 1 ч. 55 м.
Битрейт : 81 бит/сек
ElementCount : 1468
Размер потока : 68,9 Кбайт (0%)
Заголовок : Полные
Язык : Ukrainian
Default : Нет
Forced : Нет

Текст #5
Идентификатор : 10
Формат : UTF-8
Идентификатор кодека : S_TEXT/UTF8
Идентификатор кодека/Информация : UTF-8 Plain Text
Продолжительность : 1 ч. 55 м.
Битрейт : 54 бит/сек
ElementCount : 1389
Размер потока : 46,4 Кбайт (0%)
Заголовок : Full
Язык : English
Default : Нет
Forced : Нет

Текст #6
Идентификатор : 11
Формат : UTF-8
Идентификатор кодека : S_TEXT/UTF8
Идентификатор кодека/Информация : UTF-8 Plain Text
Продолжительность : 1 ч. 56 м.
Битрейт : 81 бит/сек
ElementCount : 2271
Размер потока : 69,5 Кбайт (0%)
Заголовок : SDH
Язык : English
Default : Нет
Forced : Нет

Меню
00:00:00.000 : :1
00:09:03.793 : :2
00:14:04.717 : :3
00:18:51.712 : :4
00:29:39.027 : :5
00:34:14.635 : :6
00:40:34.431 : :7
00:44:22.826 : :8
00:48:06.884 : :9
00:58:45.855 : :10
01:06:04.460 : :11
01:09:55.481 : :12
01:20:00.002 : :13
01:24:54.922 : :14
01:33:33.399 : :15
01:55:26.918 : :16
piratbit.pw



Скачать Человек-паук: Через вселенные через торрент https://b.radikal.ru/b16/1903/a0/87dd70c47aa7.png Скачать фильм Человек-паук: Через вселенные через торрент бесплантно в хорошем качестве Описание: Мы всё знаем о Питере Паркере. Он спас город, влюбился, а потом спасал город снова и снова... Но все это - в нашем измерении. А ... 10 10 4
Торрент: Зарегистрирован [2019-04-14 08:38] · скачан: 42 раз
Статус: √ проверено
Размер: 26.09 GB
Как cкачать? Как скачать Человек-паук: Через вселенные через торрент | qTorrent

% Раздел Тема Автор DL S | L
Зарубежные Мультфильмы (BDRip 1080p, 720p, Blu-ray, BD-Remux) [ 5.76 GB ] Человек-паук: Через вселенные / Spider-Man: Into the Spider-Verse [2018 мультфильм BDRip 720p] [Локализованная версия] DUB [] - ExKinoRay Enigma2010 Скачать
16 | 0
Мультфильмы (48-60 fps) [ 17.86 GB ] Человек-паук: Через вселенные / Spider-Man: Into the Spider-Verse [2018 мультфильм BDRip 1080p 60 fps] sheker187 Скачать
1 | 1
Иностранные мультфильмы [ 1.46 GB ] Человек-паук: Через вселенные / Spider-Man: Into the Spider-Verse [2018 мультфильм BDRip] - [] [Локализованная версия] Twi7ter Скачать
5 | 0
Ultra HD (UHD: 2K, 4K, 8K) [ 16.3 GB ] Человек-паук: Через вселенные / Spider-Man: Into the Spider-Verse [2018 мультфильм UHD BDRip 2160p] DUB [] sheker187 Скачать
1 | 0
3D Мультфильмы [ 14.62 GB ] Человек-паук: Через вселенные 3Д / Spider-Man: Into the Spider-Verse 3D [2018 мультфильм BDRip 1080p] [Half OverUnder / Вертикальная анаморфная стереопара] DUB [] bober100 Скачать
1 | 0
Иностранные мультфильмы [ 2.18 GB ] Человек-паук: Через вселенные / Spider-Man: Into the Spider-Verse [2018 мультфильм BDRip] - [] [Локализованная версия] Twi7ter Скачать
3 | 0
Иностранные мультфильмы [ 2.22 GB ] Человек-паук: Через вселенные / Spider-Man: Into the Spider-Verse [2018 мультфильм BDRip-AVC] DUB [] bober100 Скачать
1 | 0

28-11-2019 20:33  

Отключить всю рекламу на сайте

14-04-2019 08:38 Человек-паук: Через вселенные Скачать торрент  

Лицензияpiratbit.pw



    Дорогой пользователь! Огромная просьба, поблагодарите релизера, оцените раздачу и оставьте свои комментарий, если Вы скачали Человек-паук: Через вселенные через торрент бесплатно! Внесите свою лепту в развитие PiratBit!
    Комментировать посты могут только пользователи прошедшие не сложную регистрацию
    Показать сообщения:    

    Человек-паук: Через вселенные через торрент
    Скачать бесплатно Человек-паук: Через вселенные
    Человек-паук: Через вселенные скачать торрент
    Человек-паук: Через вселенные смотреть онлайн
    Cкачать фильм Человек-паук: Через вселенные бесплатно
    Человек-паук: Через вселенные скачать торрент в хорошем качестве
    Человек-паук: Через вселенные смотреть онлайн бесплатно в хорошем качестве


    Вы не можете начинать темы
    Вы не можете отвечать на сообщения
    Вы не можете редактировать свои сообщения
    Вы не можете удалять свои сообщения
    Вы не можете голосовать в опросах
    Вы не можете прикреплять файлы к сообщениям
    Вы можете скачивать файлы