Marvel's Avengers Deluxe Edition (супер цена) 159р. Внимание количество ограничено!!!

2 сезон

iTunes

iTunes

1

iTunes

iTunes

iTunes

WEBRip

iTunes

30
pack

Новость дня

ВАЖНО

!!Акция!!

Alien_RageХит недели

RePack

Horizon Zero Dawn

ИГРА 18+

pack

RePack

jed

!!Акция!!

Alien_Rage

RePack

fifa19

RePack

Assassins Creed: Odyssey

RePack

NEED FOR SPEED™ PAYBACK

4 сезон

9 сезон

Бесстыжие 9 сезон

Все сериалы

все сериалы на PB.wtf

RePack

FAR CRY 5
  

Звёзды (Александр Новиков-Янгинов) [2018, драма, комедия, WEB-DL 1080p] [iTunes] piratbit.pw

Звёзды через торрент piratbit.pw

Размер: 3.38 GB | Добавлен: 1 год 6 мес. назад | Торрент скачан:230 раз
Скачать  

11-03-2019 00:22 Звёзды Скачать торрент  

Звёзды Год выпуска: 2018
Страна: Россия
Жанр: драма, комедия
Продолжительность: 01:37:47
Перевод: Не требуется | iTunes
Субтитры: отсутствуют

Режиссер: Александр Новиков-Янгинов



В ролях:

Виктор Сухоруков, Сейдулла Молдаханов, Амаду Мамадаков, Георгий Пицхелаури, Игорь Гаспарян, Елена Сачук, Алеся Гузько

Описание:

Главный герой, родом из Узбекистана и русский по паспорту, отправляется на заработки в Москву: его дочери необходимо дорогостоящее лечение. В столице ставшей для него чужой родины учитель русского языка вынужден работать штукатуром, строителем и продавцом на рынке. В круговороте событий герой оказывается перед сложным выбором: предать свои ценности или спасти дочь ценой собственных убеждений.

Качество: WEB-DL 1080p
Формат: MKV

Видео: MPEG-4 AVC, 4470 Кбит/с, 1920x804
Аудио: AC3, 6 ch, 384 Кбит/с
скриншот  скриншот  скриншот  скриншот  скриншот  

Общее
Уникальный идентификатор : 177381213747322950969340243136138466231 (0x8572610D88DE21D484929417DC1053B7)
Полное имя : D:\Stars.WEB-DL.1080p.ELEKTRI4KA.UNIONGANG.mkv
Формат : Matroska
Версия формата : Version 2
Размер файла : 3,38 Гбайт
Продолжительность : 1 ч. 37 м.
Общий поток : 4953 Кбит/сек
Название фильма : ELEKTRI4KA.UNIONGANG
Дата кодирования : UTC 2019-03-10 19:04:35
Программа кодирования : mkvmerge v7.8.0 ('River Man') 32bit built on Apr 3 2015 12:11:22
Библиотека кодирования : libebml v1.3.1 + libmatroska v1.4.2
Обложка : Yes
Attachments : cover.jpg

Видео
Идентификатор : 2
Формат : AVC
Формат/Информация : Advanced Video Codec
Профиль формата : High@L4
Параметр CABAC формата : Да
Параметр RefFrames формата : 5 кадров
Идентификатор кодека : V_MPEG4/ISO/AVC
Продолжительность : 1 ч. 37 м.
Битрейт : 4470 Кбит/сек
Ширина : 1920 пикселей
Высота : 804 пикселя
Соотношение сторон : 2,40:1
Режим частоты кадров : Постоянный
Частота кадров : 24,000 кадра/сек
Цветовое пространство : YUV
Субдискретизация насыщенности : 4:2:0
Битовая глубина : 8 бит
Тип развёртки : Прогрессивная
Бит/(Пиксели*Кадры) : 0.121
Размер потока : 3,05 Гбайт (90%)
Заголовок : ELEKTRI4KA.UNIONGANG
Язык : English
Default : Да
Forced : Нет
Цветовой диапазон : Limited
Основные цвета : BT.709
Характеристики трансфера : BT.709
Коэффициенты матрицы : BT.709

Аудио
Идентификатор : 1
Формат : AC-3
Формат/Информация : Audio Coding 3
Расширение режима : CM (complete main)
Параметр Endianness формата : Big
Идентификатор кодека : A_AC3
Продолжительность : 1 ч. 37 м.
Вид битрейта : Постоянный
Битрейт : 384 Кбит/сек
Каналы : 6 каналов
Расположение каналов : Front: L C R, Side: L R, LFE
Частота : 48,0 КГц
Частота кадров : 31,250 кадров/сек (1536 spf)
Метод сжатия : С потерями
Размер потока : 269 Мбайт (8%)
Заголовок : ELEKTRI4KA.UNIONGANG
Язык : Russian
Default : Да
Forced : Нет

Меню
00:00:00.000 : en:Глава 1
00:06:29.583 : en:Глава 2
00:14:51.708 : en:Глава 3
00:22:52.333 : en:Глава 4
00:28:59.623 : en:Глава 5
00:35:11.538 : en:Глава 6
00:41:41.746 : en:Глава 7
00:47:19.871 : en:Глава 8
00:52:06.371 : en:Глава 9
00:59:58.246 : en:Глава 10
01:07:21.079 : en:Глава 11
01:15:44.870 : en:Глава 12
01:22:08.286 : en:Глава 13
01:28:01.452 : en:Глава 14

piratbit.pw



Скачать Звёзды через торрент https://a.radikal.ru/a00/1903/68/17aa5bfdfbab.png Скачать фильм Звёзды через торрент бесплантно в хорошем качестве Описание: Главный герой, родом из Узбекистана и русский по паспорту, отправляется на заработки в Москву: его дочери необходимо ... 10 10 7
Info! Золотая раздача, скачанное не засчитывается.
Торрент: Зарегистрирован [2019-03-11 00:22] · скачан: 230 раз
Статус: √ проверено
Размер: 3.38 GB
Как cкачать? Как скачать Звёзды через торрент | qTorrent

% Раздел Тема Автор DL S | L
TBS (пошаговые стратегии) [ 2.05 GB ] Космическая федерация II. Звезды страха [L] Shmel Скачать
2 | 0
Мамочки [ 237 MB ] Возвращение порнозвезды / Back for More Big Cocks [2011 MILF brunette SiteRip] orton Скачать
1 | 0
Развлекательные телепередачи и шоу, приколы и юмор [ 13.77 GB ] Американская секс звезда / Jenna’s American Sex Star [ 2005-2006 Реалити-шоу HDTVRip 720p ] L_E_X Скачать
1 | 0
Гонзо [ 697 MB ] Sasha Grey Cock Star / Звезда Члена Sasha Grey [2010 Gonzo DVDRip] Shmel Скачать
1 | 0
Фильмы 2010 [ 731 MB ] Третья звезда / Third star [2010 DVDRip] coc900 Скачать
1 | 0
Фильмы 2010 [ 1.46 GB ] Третья звезда / Third Star [2010 DVDRip MVO [ лицензия ]] markfiter Скачать
1 | 0
Гонзо [ 1.36 GB ] Порнозвезды Любят Большие 14 / Pornstars Like It Big 14 [2012 Gonzo. DVDRip Оригинал] Pir@tya2010 Скачать
1 | 0

28-11-2019 20:33  

Отключить всю рекламу на сайте

    Дорогой пользователь! Огромная просьба, поблагодарите релизера, оцените раздачу и оставьте свои комментарий, если Вы скачали Звёзды через торрент бесплатно! Внесите свою лепту в развитие PiratBit!
    Комментировать посты могут только пользователи прошедшие не сложную регистрацию
    Показать сообщения:    

    Звёзды через торрент
    Скачать бесплатно Звёзды
    Звёзды скачать торрент
    Звёзды смотреть онлайн
    Cкачать фильм Звёзды бесплатно
    Звёзды скачать торрент в хорошем качестве
    Звёзды смотреть онлайн бесплатно в хорошем качестве


    Вы не можете начинать темы
    Вы не можете отвечать на сообщения
    Вы не можете редактировать свои сообщения
    Вы не можете удалять свои сообщения
    Вы не можете голосовать в опросах
    Вы не можете прикреплять файлы к сообщениям
    Вы можете скачивать файлы