1 сезон

1 сезон

iTunes

1

КиноПоиск HD

Кинопоиск HD

iTunes

13

1 сезон

RePack

30

Ultimate

ВАЖНО

ИГРА 18+

pack

RePack

MK11
pack

Легкие деньги

RePack

jed

RePack

fifa19

RePack

RDR2

RePack

NEED FOR SPEED™ PAYBACK

4 сезон

9 сезон

Бесстыжие 9 сезон

Все сериалы

все сериалы на PB.wtf

RePack

FAR CRY 5
  
Magnet ссылка

Спонтанное возгорание / Spontaneous Combustion (Тоуб Хупер) [1990 г., ужасы, фантастика, триллер, BDRip] 2xAVO (Визгунов, Гаврилов) piratbit.pw

Спонтанное возгорание через торрент piratbit.pw

Размер: 1.46 GB | Добавлен: 2 года 1 мес. назад | Торрент скачан:11 раз
Скачать  

10-03-2019 09:38 Спонтанное возгорание Скачать торрент  

Спонтанное возгорание / Spontaneous Combustion Год выпуска: 1990

Страна: США

Жанр: Ужасы, фантастика, триллер

Продолжительность: 01:36:52

Перевод: Авторский (одноголосый)

Режиссер: Тоуб Хупер

rating

В ролях: Брэд Дуриф, Майкл Кис Холл, Мелинда Диллон, Джон Сайфер, Уильям Принц, Теган Уэст, Синтия Бэйн, Дэйл Дай, Дей Янг, Дик Баткас

Описание: Он наделён необычным и таинственным даром. Никто не может объяснить его происхождение. Ясно одно: Сэм Креймер — человек-феномен, вынужденный постоянно находиться под наблюдением учёных. И так продолжается до тех пор, пока люди, оказывающиеся на пути Сэма, не начинают один за другим погибать самым ужасным образом. Они сгорают заживо. Сэм в ужасе пытается найти объяснение страшным событиям. И чем ближе он к разгадке, тем теснее становится круг его врагов, которые готовы на всё, лишь бы Сэм не узнал истину. А началась вся эта история более сорока лет назад…
Качество: BDRip
Формат: AVI
Видео кодек: XviD
Аудио кодек: AC3
Видео: XviD, 1760 Кбит/с, 704x400
Аудио#1: Русский, AC3, 2 ch, 192 Кбит/с - Сергей Визгунов
Аудио#2: Русский, AC3, 2 ch, 192 Кбит/с - Андрей Гаврилов
Видео
Идентификатор : 0
Формат : MPEG-4 Visual
Профиль формата : Advanced Simple@L5
Настройки формата : BVOP1 / Custom Matrix
Параметр BVOP формата : 1
Параметр QPel формата : Нет
Параметр GMC формата : Без точки перехода
Параметр матрицы формата : Выборочная
Идентификатор кодека : XVID
Идентификатор кодека/Подсказка : XviD
Продолжительность : 1 ч. 36 м.
Битрейт : 1760 Кбит/сек
Ширина : 704 пикселя
Высота : 400 пикселей
Соотношение сторон : 16:9
Частота кадров : 23,976 (24000/1001) кадра/сек
Цветовое пространство : YUV
Субдискретизация насыщенности : 4:2:0
Битовая глубина : 8 бит
Тип развёртки : Прогрессивная
Метод сжатия : С потерями
Бит/(Пиксели*Кадры) : 0.261
Размер потока : 1,19 Гбайт (82%)
Библиотека кодирования : XviD 67

Аудио #1
Идентификатор : 1
Формат : AC-3
Формат/Информация : Audio Coding 3
Коммерческое название : Dolby Digital
Идентификатор кодека : 2000
Продолжительность : 1 ч. 36 м.
Вид битрейта : Постоянный
Битрейт : 192 Кбит/сек
Каналы : 2 канала
Channel layout : L R
Частота : 48,0 КГц
Частота кадров : 31,250 кадров/сек (1536 SPF)
Битовая глубина : 16 бит
Метод сжатия : С потерями
Размер потока : 133 Мбайт (9%)
Выравнивание : Соединение по промежуткам
Продолжительность промежутка : 64 мс. (1,54 видеокадра)
Время предзагрузки промежутка : 192 мс.
Заголовок : Spontaneous Combustion.1990.BDRemux.1080p - [0] Russian_new
ServiceKind/String : Complete Main

Аудио #2
Идентификатор : 2
Формат : AC-3
Формат/Информация : Audio Coding 3
Коммерческое название : Dolby Digital
Идентификатор кодека : 2000
Продолжительность : 1 ч. 36 м.
Вид битрейта : Постоянный
Битрейт : 192 Кбит/сек
Каналы : 2 канала
Channel layout : L R
Частота : 48,0 КГц
Частота кадров : 31,250 кадров/сек (1536 SPF)
Битовая глубина : 16 бит
Метод сжатия : С потерями
Размер потока : 133 Мбайт (9%)
Выравнивание : Соединение по промежуткам
Продолжительность промежутка : 64 мс. (1,54 видеокадра)
Время предзагрузки промежутка : 192 мс.
Заголовок : Spontaneous Combustion.1990.BDRemux.1080p - [1] Russian_new
ServiceKind/String : Complete Main

скриншот   скриншот   скриншот   скриншот   скриншот  

piratbit.pw



Скачать Спонтанное возгорание через торрент https://i6.imageban.ru/out/2019/03/10/c0cb1bb1f3f757015ce47e7d1416a587.gif Скачать фильм Спонтанное возгорание через торрент бесплантно в хорошем качестве Описание: Он наделён необычным и таинственным даром. Никто не может объяснить его происхождение. Ясно одно: Сэм Креймер — человек-феномен, ... 10 10 2
Торрент: Зарегистрирован [2019-03-10 09:38] · скачан: 11 раз
Статус: √ проверено
Размер: 1.46 GB
Как cкачать? Как скачать Спонтанное возгорание через торрент | UTorrent

28-11-2019 20:33  

Отключить всю рекламу на сайте

    Дорогой пользователь! Огромная просьба, поблагодарите релизера, оцените раздачу и оставьте свои комментарий, если Вы скачали Спонтанное возгорание через торрент бесплатно! Внесите свою лепту в развитие PiratBit!
    Комментировать посты могут только пользователи прошедшие не сложную регистрацию
    Показать сообщения:    

    Спонтанное возгорание через торрент
    Скачать бесплатно Спонтанное возгорание
    Спонтанное возгорание скачать торрент
    Спонтанное возгорание смотреть онлайн
    Cкачать фильм Спонтанное возгорание бесплатно
    Спонтанное возгорание скачать торрент в хорошем качестве
    Спонтанное возгорание смотреть онлайн бесплатно в хорошем качестве


    Вы не можете начинать темы
    Вы не можете отвечать на сообщения
    Вы не можете редактировать свои сообщения
    Вы не можете удалять свои сообщения
    Вы не можете голосовать в опросах
    Вы не можете прикреплять файлы к сообщениям
    Вы можете скачивать файлы