Ссылка на приватное зеркало нашего сайта всего за 1$. Внимание количество ограничено!!!

2 сезон

iTunes

iTunes

1

iTunes

iTunes

iTunes

WEBRip

iTunes

30
pack

Вам бонус

ВАЖНО

!!Акция!!

Alien_RageХит недели

RePack

Horizon Zero Dawn

ИГРА 18+

pack

RePack

jed

!!Акция!!

Alien_Rage

RePack

fifa19

RePack

Assassins Creed: Odyssey

RePack

NEED FOR SPEED™ PAYBACK

4 сезон

9 сезон

Бесстыжие 9 сезон

Все сериалы

все сериалы на PB.wtf

RePack

FAR CRY 5
  

Дом Солнца (Гарик Сукачёв) [2009, драма, BDRip 1080p by msltel] piratbit.pw

Дом Солнца через торрент piratbit.pw

Размер: 10.07 GB | Добавлен: 1 год 6 мес. назад | Торрент скачан:11 раз
Скачать  

09-03-2019 05:38 Дом Солнца Скачать торрент  

Оригинальное название: Дом Солнца
Год выпуска: 2009
Страна: Россия
Жанр: драма
Продолжительность: 01:38:56
Язык: русский

В ролях: Светлана Иванова, Станислав Рядинский, Дарья Мороз, Иван Охлобыстин, Чулпан Хаматова, Иван Стебунов, Нина Русланова, Алексей Горбунов, Александр Мохов, Никита Высоцкий, Михаил Ефремов, Иван Макаревич, Даниил Маргулис, Нелли Неведина, Алексей Панин

О фильме: Неожиданная встреча Саши с лидером хиппи Солнцем изменила её всегда такую правильную, распланированную и благополучную жизнь. И не было ничего удивительного в том, что она влюбилась в этого загадочного и принципиального парня, - cубкультура хиппи, музыка Макаревича, любовь и свобода стали первыми шагами Саши во взрослую жизнь. Без Солнца... Фильм снят по повести Ивана Охлобыстина «Дом восходящего солнца».



Качество: BDRip 1080p
Формат: MKV
Видео: MPEG-4 AVC, 13.1 Mбит/с, 1920x816, 23.976 кадр/с
Аудио: русский, DTS, 1509 kbps, 6 ch, 48 kHz [оригинал]
Главы/чаптеры
Общее
Уникальный идентификатор : 183723473301677962598114737128951594078 (0x8A37DA975883CD90A19A898CFB8D3C5E)
Полное имя : D:\Video\Дом Солнца.2009.BDRip 1080p by msltel.mkv
Формат : Matroska
Версия формата : Version 4
Размер файла : 10,1 Гбайт
Продолжительность : 1 ч. 38 м.
Общий поток : 14,6 Мбит/сек
Название фильма : Rip by msltel
Дата кодирования : UTC 2019-03-09 06:05:31
Программа кодирования : mkvmerge v8.2.0 ('World of Adventure') 64bit
Библиотека кодирования : libebml v1.3.1 + libmatroska v1.4.2

Видео
Идентификатор : 1
Формат : AVC
Формат/Информация : Advanced Video Codec
Профиль формата : High@L4.1
Настройки формата : CABAC / 4 Ref Frames
Параметр CABAC формата : Да
Параметр RefFrames формата : 4 кадра
Идентификатор кодека : V_MPEG4/ISO/AVC
Продолжительность : 1 ч. 38 м.
Битрейт : 13,1 Мбит/сек
Ширина : 1920 пикселей
Высота : 816 пикселей
Соотношение сторон : 2,35:1
Режим частоты кадров : Постоянный
Частота кадров : 23,976 (24000/1001) кадра/сек
Цветовое пространство : YUV
Субдискретизация насыщенности : 4:2:0
Битовая глубина : 8 бит
Тип развёртки : Прогрессивная
Бит/(Пиксели*Кадры) : 0.348
Размер потока : 9,03 Гбайт (90%)
Библиотека кодирования : x264 core 157 r2935 545de2f
Настройки программы : cabac=1 / ref=4 / deblock=1:-2:-2 / analyse=0x3:0x113 / me=umh / subme=11 / psy=1 / psy_rd=1.00:0.15 / mixed_ref=1 / me_range=32 / chroma_me=1 / trellis=2 / 8x8dct=1 / cqm=0 / deadzone=21,11 / fast_pskip=0 / chroma_qp_offset=-3 / threads=6 / lookahead_threads=1 / sliced_threads=0 / nr=0 / decimate=1 / interlaced=0 / bluray_compat=0 / constrained_intra=0 / bframes=8 / b_pyramid=2 / b_adapt=2 / b_bias=0 / direct=1 / weightb=1 / open_gop=0 / weightp=2 / keyint=230 / keyint_min=23 / scenecut=40 / intra_refresh=0 / rc_lookahead=40 / rc=crf / mbtree=1 / crf=18.1 / qcomp=0.60 / qpmin=0 / qpmax=69 / qpstep=4 / vbv_maxrate=50000 / vbv_bufsize=62500 / crf_max=0.0 / nal_hrd=none / filler=0 / ip_ratio=1.40 / aq=1:1.00
Язык : Russian
Default : Да
Forced : Нет

Аудио
Идентификатор : 2
Формат : DTS
Формат/Информация : Digital Theater Systems
Идентификатор кодека : A_DTS
Продолжительность : 1 ч. 38 м.
Вид битрейта : Постоянный
Битрейт : 1509 Кбит/сек
Каналы : 6 каналов
Channel layout : C L R Ls Rs LFE
Частота : 48,0 КГц
Частота кадров : 93,750 кадра/сек (512 SPF)
Битовая глубина : 16 бит
Метод сжатия : С потерями
Размер потока : 1,04 Гбайт (10%)
Заголовок : оригинал
Язык : Russian
Default : Да
Forced : Нет

Меню
00:00:00.000 : :Chapter 1
00:04:46.452 : :Chapter 2
00:09:29.527 : :Chapter 3
00:15:45.986 : :Chapter 4
00:21:46.430 : :Chapter 5
00:28:15.735 : :Chapter 6
00:34:57.720 : :Chapter 7
00:42:31.632 : :Chapter 8
00:49:33.512 : :Chapter 9
00:55:59.606 : :Chapter 10
01:02:11.519 : :Chapter 11
01:07:55.321 : :Chapter 12
01:13:53.137 : :Chapter 13
01:19:32.309 : :Chapter 14
01:25:05.141 : :Chapter 15
01:32:36.676 : :Chapter 16
01:38:56.847 : :Chapter 17
piratbit.pw



Скачать Дом Солнца через торрент https://b.radikal.ru/b16/1903/0d/e942e60ea57a.jpg Скачать фильм Дом Солнца через торрент бесплантно в хорошем качестве О фильме: Неожиданная встреча Саши с лидером хиппи Солнцем изменила её всегда такую правильную, распланированную и благополучную жизнь. И ... 6.8 10 4
Info! Серебряная раздача, засчитывается только 50% скачанного.
Торрент: Зарегистрирован [2019-03-09 05:38] · скачан: 11 раз
Статус: √ проверено
Размер: 10.07 GB
Как cкачать? Как скачать Дом Солнца через торрент | qTorrent

% Раздел Тема Автор DL S | L
Наши фильмы (HD, WEB-DL 720p, 1080p) [ 3.85 GB ] Дом Солнца [2009 BDRip 720p by msltel] msltel Скачать
1 | 0
Наши фильмы, до 2010 [ 1.45 GB ] Дом Солнца [2009 HDRip] Anonymous Скачать
1 | 0
Классические порно фильмы [ 787 MB ] Бордель "Дом Восходящего Солнца" / House of the Rising Sun - The Bordello [1985 Feature Foreign DVDRip 400p] sheker187 Скачать
1 | 0
Порно фильмы с сюжетом [ 698 MB ] Публичный Дом 3: Секс и солнце / Bimbo Club 3: Sex & Sun [2009 Feature Couples Vignettes PornStars DVDRip Оригинал] sheker187 Скачать
1 | 0
Порно фильмы с русским переводом [ 1.37 GB ] Солнце пляж и секс / Private Tropical 16 - Sun beach and sex [2005 Feature. DVDRip] [С Русским Переводом] Pir@tya2010 Скачать
1 | 0
Наши фильмы 2010-2011 [ 1.37 GB ] Дом Солнца [2010 DVDRip] MIO2008 Скачать
1 | 0
Фильмы 2011 [ 1.37 GB ] Дом восходящего солнца / House of the Rising Sun [2011 HDRip] Чупачупсик Скачать
1 | 0

28-11-2019 20:33  

Отключить всю рекламу на сайте

    Дорогой пользователь! Огромная просьба, поблагодарите релизера, оцените раздачу и оставьте свои комментарий, если Вы скачали Дом Солнца через торрент бесплатно! Внесите свою лепту в развитие PiratBit!
    Комментировать посты могут только пользователи прошедшие не сложную регистрацию
    Показать сообщения:    

    Дом Солнца через торрент
    Скачать бесплатно Дом Солнца
    Дом Солнца скачать торрент
    Дом Солнца смотреть онлайн
    Cкачать фильм Дом Солнца бесплатно
    Дом Солнца скачать торрент в хорошем качестве
    Дом Солнца смотреть онлайн бесплатно в хорошем качестве


    Вы не можете начинать темы
    Вы не можете отвечать на сообщения
    Вы не можете редактировать свои сообщения
    Вы не можете удалять свои сообщения
    Вы не можете голосовать в опросах
    Вы не можете прикреплять файлы к сообщениям
    Вы можете скачивать файлы