1 сезон

1 сезон

iTunes

1

КиноПоиск HD

Кинопоиск HD

iTunes

13

1 сезон

RePack

30

Новинка

ВАЖНО

ИГРА 18+

pack

RePack

MK11
pack

Легкие деньги

RePack

jed

RePack

fifa19

RePack

RDR2

RePack

NEED FOR SPEED™ PAYBACK

4 сезон

9 сезон

Бесстыжие 9 сезон

Все сериалы

все сериалы на PB.wtf

RePack

FAR CRY 5
  
Magnet ссылка

Дюнкерк / Dunkirk (Лесли Норман) [1958, боевик, драма, военный, история, BDRip 1080p by msltel] AVO piratbit.pw

Дюнкерк через торрент piratbit.pw

Размер: 15.46 GB | Добавлен: 2 года 1 мес. назад | Торрент скачан:0 раз
Скачать  

06-03-2019 08:29 Дюнкерк Скачать торрент  

Название: Дюнкерк
Оригинальное название: Dunkirk
Год выпуска: 1958
Страна: Великобритания
Жанр: боевик, драма, военный, история
Продолжительность: 02:15:19
Перевод: авторский

Режиссер: Лесли Норман
В ролях: Джон Миллс, Роберт Эркарт, Рэй Джексон, Мередит Эдвардс, Энтони Николлс, Бернард Ли, Майкл Шилло, Ричард Аттенборо, Шон Баррет, Виктор Маддерн.

О фильме: "...В основу фильма положены две центральные сюжетные линии — история группы солдат, пробирающихся из оккупированной Бельгии на запад, в Дюнкерк, и история владельцев частных судёнышек, реквизированных для нужд флота с целью эвакуации армии из Дюнкерка. В каждой из сюжетных линий находится место герою, который проходит путь своего становления как личности среди солдат, которому приходится командовать отделением после гибели командира и учиться брать на себя ответственность за судьбы людей, несмотря на своё нежелание..." Шагающий воробей (Кинопоиск).



Качество: BDRip 1080p
Формат: MKV
Видео: MPEG-4 AVC, 14.7 Mбит/с, 1792x1080
Аудио 1: русский, AC3, 192 kbps, 2 ch, 48 kHz [авторский, Алексей Багичев]
Аудио 2: английский, DTS, 1509 kbps, 2 ch, 48 kHz [оригинал]
Субтитры: английские
Главы/чаптеры
Общее
Уникальный идентификатор : 224490785418356626901419582095430788251 (0xA8E35A432EB2871B93B7F430D278249B)
Полное имя : D:\Video\Дюнкерк.1958.BDRip 1080p by msltel.mkv
Формат : Matroska
Версия формата : Version 4
Размер файла : 15,5 Гбайт
Продолжительность : 2 ч. 15 м.
Общий поток : 16,4 Мбит/сек
Название фильма : Rip by msltel
Дата кодирования : UTC 2019-03-05 15:40:32
Программа кодирования : mkvmerge v8.2.0 ('World of Adventure') 64bit
Библиотека кодирования : libebml v1.3.1 + libmatroska v1.4.2

Видео
Идентификатор : 1
Формат : AVC
Формат/Информация : Advanced Video Codec
Профиль формата : High@L4.1
Настройки формата : CABAC / 4 Ref Frames
Параметр CABAC формата : Да
Параметр RefFrames формата : 4 кадра
Идентификатор кодека : V_MPEG4/ISO/AVC
Продолжительность : 2 ч. 15 м.
Битрейт : 14,7 Мбит/сек
Ширина : 1792 пикселя
Высота : 1080 пикселей
Соотношение сторон : 5:3
Режим частоты кадров : Постоянный
Частота кадров : 24,000 кадра/сек
Цветовое пространство : YUV
Субдискретизация насыщенности : 4:2:0
Битовая глубина : 8 бит
Тип развёртки : Прогрессивная
Бит/(Пиксели*Кадры) : 0.316
Размер потока : 13,9 Гбайт (90%)
Библиотека кодирования : x264 core 157 r2935 545de2f
Настройки программы : cabac=1 / ref=4 / deblock=1:-2:-2 / analyse=0x3:0x113 / me=umh / subme=11 / psy=1 / psy_rd=1.00:0.15 / mixed_ref=1 / me_range=32 / chroma_me=1 / trellis=2 / 8x8dct=1 / cqm=0 / deadzone=21,11 / fast_pskip=0 / chroma_qp_offset=-3 / threads=6 / lookahead_threads=1 / sliced_threads=0 / nr=0 / decimate=1 / interlaced=0 / bluray_compat=0 / constrained_intra=0 / bframes=8 / b_pyramid=2 / b_adapt=2 / b_bias=0 / direct=1 / weightb=1 / open_gop=0 / weightp=2 / keyint=230 / keyint_min=23 / scenecut=40 / intra_refresh=0 / rc_lookahead=40 / rc=crf / mbtree=1 / crf=19.5 / qcomp=0.60 / qpmin=0 / qpmax=69 / qpstep=4 / vbv_maxrate=50000 / vbv_bufsize=62500 / crf_max=0.0 / nal_hrd=none / filler=0 / ip_ratio=1.40 / aq=1:1.00
Язык : English
Default : Да
Forced : Нет

Аудио #1
Идентификатор : 2
Формат : AC-3
Формат/Информация : Audio Coding 3
Коммерческое название : Dolby Digital
Идентификатор кодека : A_AC3
Продолжительность : 2 ч. 15 м.
Вид битрейта : Постоянный
Битрейт : 192 Кбит/сек
Каналы : 2 канала
Channel layout : L R
Частота : 48,0 КГц
Частота кадров : 31,250 кадров/сек (1536 SPF)
Битовая глубина : 16 бит
Метод сжатия : С потерями
Размер потока : 186 Мбайт (1%)
Заголовок : Алексей Багичев
Язык : Russian
ServiceKind/String : Complete Main
Default : Да
Forced : Нет

Аудио #2
Идентификатор : 3
Формат : DTS
Формат/Информация : Digital Theater Systems
Идентификатор кодека : A_DTS
Продолжительность : 2 ч. 15 м.
Вид битрейта : Постоянный
Битрейт : 1509 Кбит/сек
Каналы : 2 канала
Channel layout : Lt Rt
Частота : 48,0 КГц
Частота кадров : 93,750 кадра/сек (512 SPF)
Битовая глубина : 24 бит
Метод сжатия : С потерями
Размер потока : 1,43 Гбайт (9%)
Заголовок : original
Язык : English
Default : Нет
Forced : Нет

Текст
Идентификатор : 4
Формат : UTF-8
Идентификатор кодека : S_TEXT/UTF8
Идентификатор кодека/Информация : UTF-8 Plain Text
Продолжительность : 2 ч. 12 м.
Битрейт : 61 бит/сек
ElementCount : 1656
Размер потока : 59,3 Кбайт (0%)
Заголовок : английские
Язык : English
Default : Нет
Forced : Нет

Меню
00:00:00.000 : :Глава 01
00:12:36.791 : :Глава 02
00:26:08.791 : :Глава 03
00:39:11.750 : :Глава 04
00:48:24.333 : :Глава 05
01:00:20.500 : :Глава 06
01:10:28.666 : :Глава 07
01:18:23.500 : :Глава 08
01:30:26.083 : :Глава 09
01:44:19.333 : :Глава 10
01:57:00.208 : :Глава 11
02:12:04.000 : :Глава 12
piratbit.pw



Скачать Дюнкерк через торрент https://a.radikal.ru/a17/1903/47/c5678c86821c.jpg Скачать фильм Дюнкерк через торрент бесплантно в хорошем качестве О фильме: "...В основу фильма положены две центральные сюжетные линии — история группы солдат, пробирающихся из оккупированной Бельгии на ... 10 10 1
Info! Золотая раздача, скачанное не засчитывается.
Торрент: Зарегистрирован [2019-03-06 08:29] · скачан: 0 раз
Статус: √ проверено
Размер: 15.46 GB
Как cкачать? Как скачать Дюнкерк через торрент | UTorrent

% Раздел Тема Автор DL S | L
Фильмы с авторской озвучкой [ 5.12 GB ] Дюнкерк / Dunkirk [1958 военный история BDRip 720p by msltel] AVO msltel Скачать
1 | 0
Фильмы [HD 720p, 1080p] (Хороший звук DUB, MVO) [ 7.54 GB ] Дюнкерк / Dunkirk [2017 Военный история BDRip 720p от _denis_100 | NNNB] DUB + 4хAVO + Original + Sub _denis_100 Скачать
1 | 0
Ultra HD (UHD: 2K, 4K, 8K) — видео сверхвысокой чёткости [ 52.79 GB ] Дюнкерк / Dunkirk [2017 военный история UHD BD Remux 2160p] 2xAVO [Есарев Гаврилов] +2xDUB [IMAX] [Sergesha BD CEE] bober100 Скачать
1 | 0
Фильмы с авторской озвучкой [ 1.47 GB ] Дюнкерк / Dunkirk [2017 военный история BDRip] [AVO] killermax2013 Скачать
1 | 0
Фильмы с авторской озвучкой [ 1.84 GB ] Дюнкерк / Dunkirk [1958 Военный экранизация BDRip] [AVO] killermax2013 Скачать
1 | 0
Фильмы с авторской озвучкой [ 2.39 GB ] Дюнкерк / Dunkirk [2017 военный история BDRip-AVC] AVO [Есарев] - ExKinoRay Enigma2010 Скачать
1 | 0

28-11-2019 20:33  

Отключить всю рекламу на сайте

    Дорогой пользователь! Огромная просьба, поблагодарите релизера, оцените раздачу и оставьте свои комментарий, если Вы скачали Дюнкерк через торрент бесплатно! Внесите свою лепту в развитие PiratBit!
    Комментировать посты могут только пользователи прошедшие не сложную регистрацию
    Показать сообщения:    

    Дюнкерк через торрент
    Скачать бесплатно Дюнкерк
    Дюнкерк скачать торрент
    Дюнкерк смотреть онлайн
    Cкачать фильм Дюнкерк бесплатно
    Дюнкерк скачать торрент в хорошем качестве
    Дюнкерк смотреть онлайн бесплатно в хорошем качестве


    Вы не можете начинать темы
    Вы не можете отвечать на сообщения
    Вы не можете редактировать свои сообщения
    Вы не можете удалять свои сообщения
    Вы не можете голосовать в опросах
    Вы не можете прикреплять файлы к сообщениям
    Вы можете скачивать файлы