Marvel's Avengers Deluxe Edition (супер цена) 159р. Внимание количество ограничено!!!

2 сезон

iTunes

iTunes

1

iTunes

iTunes

iTunes

WEBRip

iTunes

30
pack

Новость дня

ВАЖНО

!!Акция!!

Alien_RageХит недели

RePack

Horizon Zero Dawn

ИГРА 18+

pack

RePack

jed

!!Акция!!

Alien_Rage

RePack

fifa19

RePack

Assassins Creed: Odyssey

RePack

NEED FOR SPEED™ PAYBACK

4 сезон

9 сезон

Бесстыжие 9 сезон

Все сериалы

все сериалы на PB.wtf

RePack

FAR CRY 5
  

Крымский мост. Сделано с любовью! (Тигран Кеосаян) [2018, Комедия, мелодрама, WEB-DL 1080p] [iTunes] piratbit.pw

Крымский мост. Сделано с любовью! через торрент piratbit.pw

Размер: 3.93 GB | Добавлен: 7 мес. назад | Торрент скачан:117 раз
Скачать  

28-02-2019 11:09 Крымский мост. Сделано с любовью! Скачать торрент  

Крымский мост. Сделано с любовью! Год выпуска: 2018
Страна: Россия
Жанр: Комедия, мелодрама
Продолжительность: 01:42:29
Перевод: Не требуется | iTunes
Субтитры: отсутствуют

Режиссер: Тигран Кеосаян

rating

В ролях: Алексей Демидов, Катерина Шпица, Артем Ткаченко, Сергей Никоненко, Юрий Стоянов, Ирина Розанова, Сергей Газаров, Алёна Хмельницкая, Лаура Кеосаян, Александр Ильин

Описание: Жаркое лето и ласковое море - в Керчи строится Крымский мост. У Димы - молодого и дерзкого строителя - есть хобби: из каждой смены студенток-археологов выбрать самую красивую и именно ее завоевать. И в этот раз случилось бы так же, если бы не московский пиарщик. Он привез на стройку телевизионщиков из Америки, и, конечно, именно он - роскошный карьерист на белом кабриолете - покорит сердце Вари. Или нет? Пока два соперника наперегонки очаровывают её, горячий кавказец Берик (по паспорту Бернард!) пытается реализовать свою мечту - жениться на американке и уехать в Голливуд.

Качество: WEB-DL 1080p
Формат: MKV

Видео: MPEG-4 AVC, ~ 5120 Кбит/с, 1920x1040
Аудио: Русский, (AC3, 6 ch, 384 Кбит/с)
скриншот  скриншот  

Общее
Уникальный идентификатор : 250132210682129135283613396261686172751 (0xBC2DB6224C568CEBA96A2B898F475C4F)
Полное имя : C:\Kryimskiy.most.2018.WEB-DL.1080p.ELEKTRI4KA.UNIONGANG.mkv
Формат : Matroska
Версия формата : Version 4
Размер файла : 3,93 Гбайт
Продолжительность : 1 ч. 42 м.
Общий поток : 5487 Кбит/сек
Название фильма : ELEKTRI4KA.UNIONGANG
Дата кодирования : UTC 2020-02-16 21:41:35
Программа кодирования : mkvmerge v8.3.0 ('Over the Horizon') 64bit
Библиотека кодирования : libebml v1.3.1 + libmatroska v1.4.2

Видео
Идентификатор : 1
Формат : AVC
Формат/Информация : Advanced Video Codec
Профиль формата : High@L4
Настройки формата : CABAC / 4 Ref Frames
Параметр CABAC формата : Да
Параметр RefFrames формата : 4 кадра
Идентификатор кодека : V_MPEG4/ISO/AVC
Продолжительность : 1 ч. 42 м.
Битрейт : 5120 Кбит/сек
Ширина : 1920 пикселей
Высота : 1040 пикселей
Соотношение сторон : 1,85:1
Режим частоты кадров : Постоянный
Частота кадров : 24,000 кадра/сек
Цветовое пространство : YUV
Субдискретизация насыщенности : 4:2:0
Битовая глубина : 8 бит
Тип развёртки : Прогрессивная
Бит/(Пиксели*Кадры) : 0.107
Размер потока : 3,57 Гбайт (91%)
Библиотека кодирования : x264 core 148
Настройки программы : cabac=1 / ref=3 / deblock=1:0:0 / analyse=0x3:0x113 / me=hex / subme=7 / psy=1 / psy_rd=1.00:0.00 / mixed_ref=1 / me_range=16 / chroma_me=1 / trellis=1 / 8x8dct=1 / cqm=0 / deadzone=21,11 / fast_pskip=1 / chroma_qp_offset=-2 / threads=32 / lookahead_threads=5 / sliced_threads=0 / nr=0 / decimate=1 / interlaced=0 / bluray_compat=0 / constrained_intra=0 / bframes=6 / b_pyramid=2 / b_adapt=1 / b_bias=0 / direct=1 / weightb=1 / open_gop=0 / weightp=2 / keyint=48 / keyint_min=25 / scenecut=0 / intra_refresh=0 / rc_lookahead=40 / rc=2pass / mbtree=1 / bitrate=5120 / ratetol=1.0 / qcomp=0.60 / qpmin=0 / qpmax=69 / qpstep=4 / cplxblur=20.0 / qblur=0.5 / vbv_maxrate=7680 / vbv_bufsize=20480 / nal_hrd=none / filler=0 / ip_ratio=1.40 / aq=1:1.00
Язык : Russian
Default : Да
Forced : Нет

Аудио
Идентификатор : 2
Формат : AC-3
Формат/Информация : Audio Coding 3
Коммерческое название : Dolby Digital
Идентификатор кодека : A_AC3
Продолжительность : 1 ч. 42 м.
Вид битрейта : Постоянный
Битрейт : 384 Кбит/сек
Каналы : 6 каналов
ChannelLayout : L R C LFE Ls Rs
Частота : 48,0 КГц
Частота кадров : 31,250 кадров/сек (1536 SPF)
Битовая глубина : 16 бит
Метод сжатия : С потерями
Задержка видео : 21 мс.
Размер потока : 281 Мбайт (7%)
Заголовок : iTunes (ELEKTRI4KA.UNIONGANG)
Язык : Russian
ServiceKind/String : Complete Main
Default : Да
Forced : Нет

piratbit.pw



Скачать Крымский мост. Сделано с любовью! через торрент https://i110.fastpic.ru/big/2019/0612/22/65429e0ff46bf5e258f8f5e3c7a2d522.jpg?r=1 Скачать фильм Крымский мост. Сделано с любовью! через торрент бесплантно в хорошем качестве Описание: Жаркое лето и ласковое море - в Керчи строится Крымский мост. У Димы - молодого и дерзкого строителя - есть хобби: из каждой ... 4.8 10 42
Торрент: Зарегистрирован [2020-02-17 17:36] · скачан: 117 раз
Статус: √ проверено
Размер: 3.93 GB
Как cкачать? Как скачать Крымский мост. Сделано с любовью! через торрент | qTorrent

% Раздел Тема Автор DL S | L
T Наши фильмы (мультфильмы) cо спонсором показа (Новинки AVI/MKV) [ 4.02 GB ] Крымский мост. Сделано с любовью! [2018 WEB-DL 720p] bober100 Скачать
1 | 0
Наши новые фильмы 2018-2019 [ 1.46 GB ] Крымский мост. Сделано с любовью! [2018 WEB-DLRip] bober100 Скачать
2 | 0


Последний раз редактировалось: bober100 (2020-02-18 07:35), всего редактировалось 1 раз

28-11-2019 20:33  

Отключить всю рекламу на сайте

    Дорогой пользователь! Огромная просьба, поблагодарите релизера, оцените раздачу и оставьте свои комментарий, если Вы скачали Крымский мост. Сделано с любовью! через торрент бесплатно! Внесите свою лепту в развитие PiratBit!
    Комментировать посты могут только пользователи прошедшие не сложную регистрацию
    Показать сообщения:    

    Крымский мост. Сделано с любовью! через торрент
    Скачать бесплатно Крымский мост. Сделано с любовью!
    Крымский мост. Сделано с любовью! скачать торрент
    Крымский мост. Сделано с любовью! смотреть онлайн
    Cкачать фильм Крымский мост. Сделано с любовью! бесплатно
    Крымский мост. Сделано с любовью! скачать торрент в хорошем качестве
    Крымский мост. Сделано с любовью! смотреть онлайн бесплатно в хорошем качестве


    Вы не можете начинать темы
    Вы не можете отвечать на сообщения
    Вы не можете редактировать свои сообщения
    Вы не можете удалять свои сообщения
    Вы не можете голосовать в опросах
    Вы не можете прикреплять файлы к сообщениям
    Вы можете скачивать файлы