Marvel's Avengers Deluxe Edition (супер цена) 159р. Внимание количество ограничено!!!

2 сезон

iTunes

iTunes

1

iTunes

iTunes

iTunes

WEBRip

iTunes

30
pack

Новость дня

ВАЖНО

!!Акция!!

Alien_RageХит недели

RePack

Horizon Zero Dawn

ИГРА 18+

pack

RePack

jed

!!Акция!!

Alien_Rage

RePack

fifa19

RePack

Assassins Creed: Odyssey

RePack

NEED FOR SPEED™ PAYBACK

4 сезон

9 сезон

Бесстыжие 9 сезон

Все сериалы

все сериалы на PB.wtf

RePack

FAR CRY 5
  

Последний богатырь (Дмитрий Дьяченко) [2017, Комедия, семейный, фэнтези, BDRip-HEVC 1080p, (10 bit)] [Лицензия] piratbit.pw

Последний богатырь через торрент piratbit.pw

Раздают: 1 [ 35 KB/s ]
Размер: 3.95 GB | Добавлен: 1 год 6 мес. назад | Торрент скачан:175 раз
Скачать  

22-02-2019 03:34 Последний богатырь Скачать торрент  

Последний богатырь
Год выпуска: 2017
Страна: Россия
Жанр: Комедия, семейный, фэнтези
Продолжительность: 01:53:58
Перевод: Не требуется | Лицензия
Субтитры: Русские (full)

Режиссер: Дмитрий Дьяченко

rating

В ролях:

Виктор Хориняк, Мила Сивацкая, Екатерина Вилкова, Елена Яковлева, Константин Лавроненко, Евгений Дятлов, Александр Семчев, Сергей Бурунов, Александр Кухаренко, Марина Калецкая

Описание:

Иван, обычный парень, по воле случая переносится из современной Москвы в фантастическую страну Белогорье. В этом параллельном мире живут герои русских сказок, волшебство — неотъемлемая часть быта, а спорные вопросы решаются битвой на богатырских мечах. Неожиданно Иван оказывается в самом центре борьбы светлых и темных сил, вот только непонятно, почему главная роль в происходящих событиях, по всеобщему мнению, уготована именно ему.

Качество: BDRip-HEVC 1080p
Формат: MKV

Видео: 1920x804, 24.000 fps, HEVC, ~4512 kbps, 10 bit
Аудио Rus: 48 kHz/16-bit, AC3 5.1, ~448 kbps | Оригинал
скриншот  скриншот  скриншот  скриншот  скриншот  

скриншот  скриншот  скриншот  скриншот  скриншот  

General
Unique ID : 183466580667515736559675551766245401421 (0x8A0660CE736D21CB6C186A0378CDE34D)
Complete name : d:HEVCLast Hero (2017)Last.Hero.2017.1080p_HEVCCLUB.mkv
Format : Matroska
Format version : Version 4 / Version 2
File size : 3.95 GiB
Duration : 1 h 53 min
Overall bit rate : 4 962 kb/s
Movie name : Последний богатырь (2017) - HEVC CLUB
Encoded date : UTC 2018-02-21 13:57:08
Writing application : mkvmerge v20.0.0 ('I Am The Sun') 64-bit
Writing library : libebml v1.3.5 + libmatroska v1.4.8
Cover : Yes
Attachments : Cover.jpg

Video
ID : 1
Format : HEVC
Format/Info : High Efficiency Video Coding
Format profile : Main 10@L4.1@High
Codec ID : V_MPEGH/ISO/HEVC
Duration : 1 h 53 min
Bit rate : 4 512 kb/s
Width : 1 920 pixels
Height : 804 pixels
Display aspect ratio : 2.40:1
Frame rate mode : Constant
Frame rate : 24.000 FPS
Color space : YUV
Chroma subsampling : 4:2:0
Bit depth : 10 bits
Bits/(Pixel*Frame) : 0.122
Stream size : 3.59 GiB (91%)
Title : HEVC CLUB
Writing library : x265 2.6+22-ff02513b92c0:[Windows][GCC 7.2.0][64 bit] 10bit
Encoding settings : cpuid=1173503 / frame-threads=3 / numa-pools=8 / wpp / pmode / no-pme / no-psnr / ssim / log-level=2 / input-csp=1 / input-res=1920x804 / interlace=0 / total-frames=0 / level-idc=41 / high-tier=1 / uhd-bd=0 / ref=6 / no-allow-non-conformance / repeat-headers / annexb / no-aud / no-hrd / info / hash=0 / no-temporal-layers / open-gop / min-keyint=23 / keyint=250 / gop-lookahead=0 / bframes=10 / b-adapt=2 / b-pyramid / bframe-bias=0 / rc-lookahead=60 / lookahead-slices=1 / scenecut=40 / radl=0 / no-intra-refresh / ctu=64 / min-cu-size=8 / no-rect / no-amp / max-tu-size=32 / tu-inter-depth=3 / tu-intra-depth=3 / limit-tu=0 / rdoq-level=1 / dynamic-rd=2.00 / no-ssim-rd / signhide / no-tskip / nr-intra=0 / nr-inter=0 / no-constrained-intra / no-strong-intra-smoothing / max-merge=2 / limit-refs=0 / no-limit-modes / me=1 / subme=7 / merange=64 / temporal-mvp / weightp / weightb / no-analyze-src-pics / deblock=-3:-3 / no-sao / no-sao-non-deblock / rd=4 / no-early-skip / no-rskip / no-fast-intra / no-tskip-fast / no-cu-lossless / no-b-intra / no-splitrd-skip / rdpenalty=0 / psy-rd=1.75 / psy-rdoq=2.50 / no-rd-refine / no-lossless / cbqpoffs=0 / crqpoffs=0 / rc=crf / crf=22.0 / qcomp=0.80 / qpstep=6 / stats-write=0 / stats-read=0 / vbv-maxrate=50000 / vbv-bufsize=50000 / vbv-init=0.9 / crf-max=0.0 / crf-min=0.0 / ipratio=1.50 / pbratio=1.00 / aq-mode=1 / aq-strength=0.20 / no-cutree / zone-count=0 / no-strict-cbr / qg-size=32 / no-rc-grain / qpmax=69 / qpmin=0 / no-const-vbv / sar=1 / overscan=0 / videoformat=5 / range=0 / colorprim=2 / transfer=2 / colormatrix=2 / chromaloc=0 / display-window=0 / max-cll=0,0 / min-luma=0 / max-luma=1023 / log2-max-poc-lsb=8 / vui-timing-info / vui-hrd-info / slices=1 / no-opt-qp-pps / no-opt-ref-list-length-pps / no-multi-pass-opt-rps / scenecut-bias=0.05 / no-opt-cu-delta-qp / aq-motion / no-hdr / no-hdr-opt / no-dhdr10-opt / analysis-save=(null) / analysis-load=(null) / analysis-reuse-level=5 / scale-factor=0 / refine-intra=0 / refine-inter=0 / refine-mv=0 / no-limit-sao / ctu-info=0 / no-lowpass-dct / refine-mv-type=0 / copy-pic=1
Default : Yes
Forced : Yes

Audio
ID : 2
Format : AC-3
Format/Info : Audio Coding 3
Codec ID : A_AC3
Duration : 1 h 53 min
Bit rate mode : Constant
Bit rate : 448 kb/s
Channel(s) : 6 channels
Channel positions : Front: L C R, Side: L R, LFE
Sampling rate : 48.0 kHz
Frame rate : 31.250 FPS (1536 SPF)
Bit depth : 16 bits
Compression mode : Lossy
Stream size : 365 MiB (9%)
Title : Original
Language : Russian
Service kind : Complete Main
Default : Yes
Forced : No

Text
ID : 3
Format : UTF-8
Codec ID : S_TEXT/UTF8
Codec ID/Info : UTF-8 Plain Text
Duration : 1 h 45 min
Bit rate : 56 b/s
Count of elements : 886
Stream size : 43.7 KiB (0%)
Title : Full
Language : Russian
Default : No
Forced : No

Menu
00:00:00.000 : en:Chapter 1
00:14:59.000 : en:Chapter 2
00:32:41.000 : en:Chapter 3
00:50:55.458 : en:Chapter 4
01:06:16.458 : en:Chapter 5
01:24:54.458 : en:Chapter 6
01:38:13.000 : en:Chapter 7

piratbit.pw



Скачать Последний богатырь через торрент http://pic1.kartinco.top/images/12/6idyf.jpg Скачать фильм Последний богатырь через торрент бесплантно в хорошем качестве Описание:Иван, обычный парень, по воле случая переносится из современной Москвы в фантастическую страну Белогорье. В этом параллельном мире ... 10 10 6
Торрент: Зарегистрирован [2019-02-22 03:34] · скачан: 175 раз
Статус: √ проверено
Размер: 3.95 GB
Как cкачать? Как скачать Последний богатырь через торрент | qTorrent

% Раздел Тема Автор DL S | L
Наши новые фильмы 2017 [ 1.46 GB ] Последний богатырь [2017 BDRip-AVC] [] sokol_ok Скачать
3 | 0
Наши новые фильмы 2017 [ 1.46 GB ] Последний богатырь [2017 BDRip] [Русский] [] Twi7ter Скачать
1 | 0
Наши новые фильмы 2017 [ 746 MB ] Последний богатырь [2017 BDRip-AVC] [] sokol_ok Скачать
2 | 0
Наши новые фильмы 2017 [ 2.18 GB ] Последний богатырь [2017 BDRip-AVC] [] sokol_ok Скачать
1 | 0
Наши фильмы (HD, WEB-DL 720p, 1080p) [ 7.97 GB ] Последний богатырь [2017 BDRip 1080p] [] bober100 Скачать
1 | 0
Наши новые фильмы 2017 [ 2.13 GB ] Последний богатырь [2017 BDRip-AVC] [] bober100 Скачать
1 | 0
Наши новые фильмы 2017 [ 746 MB ] Последний богатырь [2017 BDRip] [ Blu-ray RUS] bober100 Скачать
1 | 0

28-11-2019 20:33  

Отключить всю рекламу на сайте

    Дорогой пользователь! Огромная просьба, поблагодарите релизера, оцените раздачу и оставьте свои комментарий, если Вы скачали Последний богатырь через торрент бесплатно! Внесите свою лепту в развитие PiratBit!
    Комментировать посты могут только пользователи прошедшие не сложную регистрацию
    Показать сообщения:    

    Последний богатырь через торрент
    Скачать бесплатно Последний богатырь
    Последний богатырь скачать торрент
    Последний богатырь смотреть онлайн
    Cкачать фильм Последний богатырь бесплатно
    Последний богатырь скачать торрент в хорошем качестве
    Последний богатырь смотреть онлайн бесплатно в хорошем качестве


    Вы не можете начинать темы
    Вы не можете отвечать на сообщения
    Вы не можете редактировать свои сообщения
    Вы не можете удалять свои сообщения
    Вы не можете голосовать в опросах
    Вы не можете прикреплять файлы к сообщениям
    Вы можете скачивать файлы