1 сезон

1 сезон

iTunes

1

КиноПоиск HD

Кинопоиск HD

iTunes

13

1 сезон

RePack

30

Новинка

ВАЖНО

ИГРА 18+

pack

RePack

MK11
pack

Легкие деньги

RePack

jed

RePack

fifa19

RePack

RDR2

RePack

NEED FOR SPEED™ PAYBACK

4 сезон

9 сезон

Бесстыжие 9 сезон

Все сериалы

все сериалы на PB.wtf

RePack

FAR CRY 5
  
Magnet ссылка

Не отвечай по телефону! / Don't Answer the Phone! (Роберт Хаммер) [1980 г., ужасы, триллер, детектив, HDRip] AVO (Андрей Дольский) piratbit.pw

Не отвечай по телефону! через торрент piratbit.pw

Размер: 1.45 GB | Добавлен: 2 года 2 мес. назад | Торрент скачан:8 раз
Скачать  

19-02-2019 20:20 Не отвечай по телефону! Скачать торрент  

Не отвечай по телефону! / Don't Answer the Phone!
Год выпуска: 1980

Страна: США

Жанр: Ужасы, триллер, детектив

Продолжительность: 01:34:44

Перевод: Авторский (одноголосый) - Андрей Дольский

Режиссер: Роберт Хаммер

rating

В ролях: Джеймс Вэстмолэнд, Бен Фрэнк, Фло Лоуренс, Николас Уорт, Дениз Галик-Фёри, Стэн Хэйз, Гари Аллен, Майкл Д. Кастл, Памела Джин Брайант, Тед Чэпман, Крис Уоллес, Дейл Калберг, Дебора Леа Лэнд, Том Лэссуэлл, Майк Ливайн

Описание: Ветеран Вьетнамской войны, неуравновешенный фотограф Кирк Смит, терроризирует Лос-Анджелес, убивая молодых женщин в их собственных домах. По его следу идёт полицейский, детектив-лейтенант Маккейбл...
Качество: HDRip
Формат: AVI
Видео кодек: XviD
Аудио кодек: AC3
Видео: XviD, 1797 Кбит/с, 720x384, 23.976 кадр/с
Аудио#1: Русский, AC-3, 2 ch, 192 Кбит/сек
Аудио#2: Английский, AC-3, 2 ch, 192 Кбит/сек
Видео
Идентификатор : 0
Формат : MPEG-4 Visual
Профиль формата : Advanced Simple@L5
Настройки формата : BVOP1 / Custom Matrix
Параметр BVOP формата : 1
Параметр QPel формата : Нет
Параметр GMC формата : Без точки перехода
Параметр матрицы формата : Выборочная
Идентификатор кодека : XVID
Идентификатор кодека/Подсказка : XviD
Продолжительность : 1 ч. 34 м.
Битрейт : 1797 Кбит/сек
Ширина : 720 пикселей
Высота : 384 пикселя
Соотношение сторон : 1,85:1
Частота кадров : 23,976 (24000/1001) кадра/сек
Цветовое пространство : YUV
Субдискретизация насыщенности : 4:2:0
Битовая глубина : 8 бит
Тип развёртки : Прогрессивная
Метод сжатия : С потерями
Бит/(Пиксели*Кадры) : 0.271
Размер потока : 1,19 Гбайт (82%)
Библиотека кодирования : XviD 73

Аудио #1
Идентификатор : 1
Формат : AC-3
Формат/Информация : Audio Coding 3
Коммерческое название : Dolby Digital
Идентификатор кодека : 2000
Продолжительность : 1 ч. 34 м.
Вид битрейта : Постоянный
Битрейт : 192 Кбит/сек
Каналы : 2 канала
Channel layout : L R
Частота : 48,0 КГц
Частота кадров : 31,250 кадров/сек (1536 SPF)
Битовая глубина : 16 бит
Метод сжатия : С потерями
Размер потока : 130 Мбайт (9%)
Выравнивание : Разделение по промежуткам
Продолжительность промежутка : 42 мс. (1,00 видеокадр)
Время предзагрузки промежутка : 500 мс.
ServiceKind/String : Complete Main

Аудио #2
Идентификатор : 2
Формат : AC-3
Формат/Информация : Audio Coding 3
Коммерческое название : Dolby Digital
Идентификатор кодека : 2000
Продолжительность : 1 ч. 34 м.
Вид битрейта : Постоянный
Битрейт : 192 Кбит/сек
Каналы : 2 канала
Channel layout : L R
Частота : 48,0 КГц
Частота кадров : 31,250 кадров/сек (1536 SPF)
Битовая глубина : 16 бит
Метод сжатия : С потерями
Размер потока : 130 Мбайт (9%)
Выравнивание : Разделение по промежуткам
Продолжительность промежутка : 42 мс. (1,00 видеокадр)
Время предзагрузки промежутка : 500 мс.
ServiceKind/String : Complete Main

скриншот   скриншот   скриншот   скриншот   скриншот  

piratbit.pw



Скачать Не отвечай по телефону! через торрент https://pic1.kartinco.top/images/12/m9zny.jpg Скачать фильм Не отвечай по телефону! через торрент бесплантно в хорошем качестве Описание: Ветеран Вьетнамской войны, неуравновешенный фотограф Кирк Смит, терроризирует Лос-Анджелес, убивая молодых женщин в их ... 10 10 2
Торрент: Зарегистрирован [2019-02-19 20:20] · скачан: 8 раз
Статус: √ проверено
Размер: 1.45 GB
Как cкачать? Как скачать Не отвечай по телефону! через торрент | UTorrent

28-11-2019 20:33  

Отключить всю рекламу на сайте

    Дорогой пользователь! Огромная просьба, поблагодарите релизера, оцените раздачу и оставьте свои комментарий, если Вы скачали Не отвечай по телефону! через торрент бесплатно! Внесите свою лепту в развитие PiratBit!
    Комментировать посты могут только пользователи прошедшие не сложную регистрацию
    Показать сообщения:    

    Не отвечай по телефону! через торрент
    Скачать бесплатно Не отвечай по телефону!
    Не отвечай по телефону! скачать торрент
    Не отвечай по телефону! смотреть онлайн
    Cкачать фильм Не отвечай по телефону! бесплатно
    Не отвечай по телефону! скачать торрент в хорошем качестве
    Не отвечай по телефону! смотреть онлайн бесплатно в хорошем качестве


    Вы не можете начинать темы
    Вы не можете отвечать на сообщения
    Вы не можете редактировать свои сообщения
    Вы не можете удалять свои сообщения
    Вы не можете голосовать в опросах
    Вы не можете прикреплять файлы к сообщениям
    Вы можете скачивать файлы