1 сезон

3 сезон

iTunes

1

iTunes

DUB Netflix

iTunes

13

1 сезон

RePack

30

Deluxe

pack

Легкие деньги

ВАЖНО

ИГРА 18+

pack

RePack

MK11

RePack

jed

RePack

fifa19

RePack

RDR2

RePack

NEED FOR SPEED™ PAYBACK

4 сезон

9 сезон

Бесстыжие 9 сезон

Все сериалы

все сериалы на PB.wtf

RePack

FAR CRY 5

Anonymous, доброй ночи, мы не успеваем до 1 числа собрать деньги на оплату серверов, помогите нам пожалуйста в это трудное время. В качестве благодарности мы отключим Вам всю рекламу на сайте (укажите свой ник в строку Ваше имя)!

×
  
Magnet ссылка

Заражение / Contamination (Родион Нахапетов) [2008 г., триллер, DVDRip] DUB piratbit.pw

Заражение через торрент piratbit.pw

Размер: 1.55 GB | Добавлен: 2 года 4 мес. назад | Торрент скачан:5 раз
Скачать  

14-02-2019 21:46 Заражение Скачать торрент  

Заражение / Contamination
Год выпуска: 2008

Страна: США

Жанр: Триллер

Продолжительность: 01:38:06

Перевод: Дубляж

Режиссер: Родион Нахапетов

rating

В ролях: Карен Блэк, Родион Нахапетов, Ксения Буравская, Эрик Робертс, Игорь Арташонов, Андрей Смоляков, Илья Бледный, Игорь Фокин, Александр Базоев, Светлана Иозефий

Описание: На окраине Москвы произошло убийство российского олигарха, его совершили фашиствующие молодчики. Свидетелем убийства становится скромный школьный учитель. Из свидетеля он превращается в подозреваемого и скрываясь от правосудия попадает в психиатрическую лечебницу. Главврачом клиники является Дмитрий Корзунов - знаменитый московский психиатр. Учёный, ставящий опыты над людьми, который применяет страшные препараты, насильственно подчиняющие людей чужой воле. К нему в лечебницу и попадает подозреваемый в убийстве учитель...
Качество: DVDRip
Формат: AVI
Видео кодек: XviD
Аудио кодек: AC3
Видео: XviD, 1797 Кбит/с, 688x368
Аудио: Русский, AC-3, 6 ch, 448 Кбит/сек

Видео
Идентификатор : 0
Формат : xvid
Идентификатор кодека : xvid
Продолжительность : 1 ч. 38 м.
Битрейт : 1797 Кбит/сек
Ширина : 688 пикселей
Высота : 368 пикселей
Соотношение сторон : 1,85:1
Частота кадров : 25,000 кадров/сек
Тип развёртки : Прогрессивная
Бит/(Пиксели*Кадры) : 0.284
Размер потока : 1,23 Гбайт (80%)

Аудио
Идентификатор : 1
Формат : AC-3
Формат/Информация : Audio Coding 3
Идентификатор кодека : 00002000-0000-0010-8000-00AA00389B71
Продолжительность : 1 ч. 38 м.
Битрейт : 448 Кбит/сек
Каналы : 6 каналов
Channel layout : L R C LFE Lb Lr
Частота : 48,0 КГц
Битовая глубина : 16 бит
Метод сжатия : С потерями
Размер потока : 314 Мбайт (20%)
Продолжительность промежутка : 32 мс. (0,80 видеокадр)
Время предзагрузки промежутка : 64 мс.

скриншот  

скриншот  

скриншот  

скриншот  

скриншот  
piratbit.pw



Скачать Заражение через торрент https://pic1.kartinco.top/images/12/pp3bq.jpg Скачать фильм Заражение через торрент бесплантно в хорошем качестве Описание: На окраине Москвы произошло убийство российского олигарха, его совершили фашиствующие молодчики. Свидетелем убийства становится ... 10 10 1
Торрент: Зарегистрирован [2019-02-14 21:46] · скачан: 5 раз
Статус: √ проверено
Размер: 1.55 GB
Как cкачать? Как скачать Заражение через торрент | UTorrent

28-11-2019 20:33  

Отключить всю рекламу на сайте

    Дорогой пользователь! Огромная просьба, поблагодарите релизера, оцените раздачу и оставьте свои комментарий, если Вы скачали Заражение через торрент бесплатно! Внесите свою лепту в развитие PiratBit!
    Комментировать посты могут только пользователи прошедшие не сложную регистрацию
    Показать сообщения:    

    Заражение через торрент
    Скачать бесплатно Заражение
    Заражение скачать торрент
    Заражение смотреть онлайн
    Cкачать фильм Заражение бесплатно
    Заражение скачать торрент в хорошем качестве
    Заражение смотреть онлайн бесплатно в хорошем качестве


    Вы не можете начинать темы
    Вы не можете отвечать на сообщения
    Вы не можете редактировать свои сообщения
    Вы не можете удалять свои сообщения
    Вы не можете голосовать в опросах
    Вы не можете прикреплять файлы к сообщениям
    Вы можете скачивать файлы