1 сезон

1 сезон

iTunes

1

КиноПоиск HD

Кинопоиск HD

iTunes

13

1 сезон

RePack

30

Ultimate

ВАЖНО

ИГРА 18+

pack

RePack

MK11
pack

Легкие деньги

RePack

jed

RePack

fifa19

RePack

RDR2

RePack

NEED FOR SPEED™ PAYBACK

4 сезон

9 сезон

Бесстыжие 9 сезон

Все сериалы

все сериалы на PB.wtf

RePack

FAR CRY 5
  
Magnet ссылка

Что случилось с Элен? / What's the Matter with Helen? (Кёртис Харрингтон) [1971, мюзикл, триллер, криминал, детектив, BDRip 720p by msltel] AVO piratbit.pw

Что случилось с Элен? через торрент piratbit.pw

Размер: 4.21 GB | Добавлен: 2 года 2 мес. назад | Торрент скачан:0 раз
Скачать  

12-02-2019 06:57 Что случилось с Элен? Скачать торрент  

Название: Что случилось с Элен?
Оригинальное название: What's the Matter with Helen?
Год выпуска: 1971
Страна: США
Жанр: мюзикл, триллер, криминал, детектив
Продолжительность: 01:40:45
Перевод: авторский

Режиссер: Кёртис Харрингтон
В ролях: Дебби Рейнолдс, Шелли Уинтерс, Дэннис Уивер, Майкл МакЛиаммур, Агнес Мурхед, Хелен Уинстон, Пегги Ри, Логан Рэмси, Поли Кларк, Ивет Викерз

О фильме: В 1930-х годах Адель и Элен переживают страшные события, которые отчаянно пытаются вычеркнуть из своей жизни. Они меняют имена и перебираются из Айовы в Голливуд, где Адель открывает академию танца для талантливых детей. Содержать школу непросто, но ещё труднее забыть страшное прошлое, которое оставило в душе неизгладимый след. Вскоре Элен начинают охватывать переживания и психопатические причуды. Она утверждает, что незнакомый мужчина названивает ей по телефону. Женщина не в силах контролировать свои невротические замашки, а подруга всё чаще задается вопросом: «Что случилось с Элен?» Мучают ли женщину галлюцинации или всё происходит наяву?...



Качество: BDRip 720p
Формат: MKV
Видео: MPEG-4 AVC, 5603 Кбит/с, 1280x690
Аудио 1: русский, AC3, 192 kbps, 2 ch, 48 kHz [авторский, Андрей Дольский]
Аудио 2: английский, AC3, 192 kbps, 2 ch, 48 kHz [оригинал]
Субтитры: английские
Главы/чаптеры
Общее
Уникальный идентификатор : 246089596422611987542598962308366070233 (0xB92321DCCA678D43A907A00E3399F1D9)
Полное имя : D:\Video\Что случилось с Элен.1971.BDRip 720p by msltel.mkv
Формат : Matroska
Версия формата : Version 4
Размер файла : 4,21 Гбайт
Продолжительность : 1 ч. 40 м.
Общий поток : 5989 Кбит/сек
Название фильма : Rip by msltel
Дата кодирования : UTC 2019-02-12 07:31:59
Программа кодирования : mkvmerge v8.2.0 ('World of Adventure') 64bit
Библиотека кодирования : libebml v1.3.1 + libmatroska v1.4.2

Видео
Идентификатор : 1
Формат : AVC
Формат/Информация : Advanced Video Codec
Профиль формата : High@L4.1
Настройки формата : CABAC / 9 Ref Frames
Параметр CABAC формата : Да
Параметр RefFrames формата : 9 кадров
Идентификатор кодека : V_MPEG4/ISO/AVC
Продолжительность : 1 ч. 40 м.
Битрейт : 5603 Кбит/сек
Ширина : 1280 пикселей
Высота : 690 пикселей
Соотношение сторон : 1,85:1
Режим частоты кадров : Постоянный
Частота кадров : 23,976 (24000/1001) кадра/сек
Цветовое пространство : YUV
Субдискретизация насыщенности : 4:2:0
Битовая глубина : 8 бит
Тип развёртки : Прогрессивная
Бит/(Пиксели*Кадры) : 0.265
Размер потока : 3,94 Гбайт (94%)
Библиотека кодирования : x264 core 157 r2935 545de2f
Настройки программы : cabac=1 / ref=9 / deblock=1:-2:-2 / analyse=0x3:0x113 / me=umh / subme=11 / psy=1 / psy_rd=1.00:0.15 / mixed_ref=1 / me_range=32 / chroma_me=1 / trellis=2 / 8x8dct=1 / cqm=0 / deadzone=21,11 / fast_pskip=0 / chroma_qp_offset=-3 / threads=6 / lookahead_threads=1 / sliced_threads=0 / nr=0 / decimate=1 / interlaced=0 / bluray_compat=0 / constrained_intra=0 / bframes=10 / b_pyramid=2 / b_adapt=2 / b_bias=0 / direct=1 / weightb=1 / open_gop=0 / weightp=2 / keyint=230 / keyint_min=23 / scenecut=40 / intra_refresh=0 / rc_lookahead=40 / rc=crf / mbtree=1 / crf=19.6 / qcomp=0.60 / qpmin=0 / qpmax=69 / qpstep=4 / vbv_maxrate=50000 / vbv_bufsize=62500 / crf_max=0.0 / nal_hrd=none / filler=0 / ip_ratio=1.40 / aq=1:1.00
Язык : English
Default : Да
Forced : Нет

Аудио #1
Идентификатор : 2
Формат : AC-3
Формат/Информация : Audio Coding 3
Коммерческое название : Dolby Digital
Идентификатор кодека : A_AC3
Продолжительность : 1 ч. 40 м.
Вид битрейта : Постоянный
Битрейт : 192 Кбит/сек
Каналы : 2 канала
Channel layout : L R
Частота : 48,0 КГц
Частота кадров : 31,250 кадров/сек (1536 SPF)
Битовая глубина : 16 бит
Метод сжатия : С потерями
Размер потока : 138 Мбайт (3%)
Заголовок : Антон Дольский
Язык : Russian
ServiceKind/String : Complete Main
Default : Да
Forced : Нет

Аудио #2
Идентификатор : 3
Формат : AC-3
Формат/Информация : Audio Coding 3
Коммерческое название : Dolby Digital
Идентификатор кодека : A_AC3
Продолжительность : 1 ч. 40 м.
Вид битрейта : Постоянный
Битрейт : 192 Кбит/сек
Каналы : 2 канала
Channel layout : L R
Частота : 48,0 КГц
Частота кадров : 31,250 кадров/сек (1536 SPF)
Битовая глубина : 16 бит
Метод сжатия : С потерями
Размер потока : 138 Мбайт (3%)
Заголовок : original
Язык : English
ServiceKind/String : Complete Main
Default : Нет
Forced : Нет

Текст
Идентификатор : 4
Формат : UTF-8
Идентификатор кодека : S_TEXT/UTF8
Идентификатор кодека/Информация : UTF-8 Plain Text
Продолжительность : 1 ч. 39 м.
Битрейт : 62 бит/сек
ElementCount : 1614
Размер потока : 45,4 Кбайт (0%)
Заголовок : английские
Язык : English
Default : Нет
Forced : Нет

Меню
00:00:00.000 : en:Chapter 1
00:08:24.796 : en:Chapter 2
00:16:11.053 : en:Chapter 3
00:25:19.435 : en:Chapter 4
00:32:24.234 : en:Chapter 5
00:40:01.608 : en:Chapter 6
00:47:56.957 : en:Chapter 7
00:55:10.766 : en:Chapter 8
01:04:10.597 : en:Chapter 9
01:12:19.377 : en:Chapter 10
01:20:17.104 : en:Chapter 11
01:32:43.808 : en:Chapter 12
piratbit.pw



Скачать Что случилось с Элен? через торрент https://a.radikal.ru/a06/1902/b3/109354825c8a.jpg Скачать фильм Что случилось с Элен? через торрент бесплантно в хорошем качестве О фильме: В 1930-х годах Адель и Элен переживают страшные события, которые отчаянно пытаются вычеркнуть из своей жизни. Они меняют имена и ... 5 10 1
Info! Золотая раздача, скачанное не засчитывается.
Торрент: Зарегистрирован [2019-02-12 06:57] · скачан: 0 раз
Статус: √ проверено
Размер: 4.21 GB
Как cкачать? Как скачать Что случилось с Элен? через торрент | UTorrent

28-11-2019 20:33  

Отключить всю рекламу на сайте

    Дорогой пользователь! Огромная просьба, поблагодарите релизера, оцените раздачу и оставьте свои комментарий, если Вы скачали Что случилось с Элен? через торрент бесплатно! Внесите свою лепту в развитие PiratBit!
    Комментировать посты могут только пользователи прошедшие не сложную регистрацию
    Показать сообщения:    

    Что случилось с Элен? через торрент
    Скачать бесплатно Что случилось с Элен?
    Что случилось с Элен? скачать торрент
    Что случилось с Элен? смотреть онлайн
    Cкачать фильм Что случилось с Элен? бесплатно
    Что случилось с Элен? скачать торрент в хорошем качестве
    Что случилось с Элен? смотреть онлайн бесплатно в хорошем качестве


    Вы не можете начинать темы
    Вы не можете отвечать на сообщения
    Вы не можете редактировать свои сообщения
    Вы не можете удалять свои сообщения
    Вы не можете голосовать в опросах
    Вы не можете прикреплять файлы к сообщениям
    Вы можете скачивать файлы