1 сезон

1 сезон

iTunes

1

iTunes

Кинопоиск HD

iTunes

13

1 сезон

RePack

30

Deluxe

ВАЖНО

ИГРА 18+

pack

RePack

MK11
pack

Легкие деньги

RePack

jed

RePack

fifa19

RePack

RDR2

RePack

NEED FOR SPEED™ PAYBACK

4 сезон

9 сезон

Бесстыжие 9 сезон

Все сериалы

все сериалы на PB.wtf

RePack

FAR CRY 5
  
Magnet ссылка

Добро пожаловать или соседям вход воспрещен / Deck the Halls (Джон Уайтселл) [2006 г., комедия, семейный, HDTVRip] piratbit.pw

Добро пожаловать или соседям вход воспрещен через торрент piratbit.pw

Размер: 1.46 GB | Добавлен: 10 лет назад | Торрент скачан:165 раз
Скачать  

03-01-2011 14:02 Добро пожаловать или соседям вход воспрещен Скачать торрент  

Добро пожаловать или соседям вход воспрещен
/ Deck the Halls


Год выпуска: 2006
Страна: США
Жанр: комедия, семейный
Продолжительность: 01:29:03
Перевод: Профессиональный (полное дублирование)

Режиссер: Джон Уайтселл
Продюссер: Майкл Костиган, Арнон Милчэн, Джереми Сэмюэлс
Сценарий: Мэтт Кормэн, Крис Орд, Дон Раймер

Премьера в мире: 22 ноября 2006

IMDB: 4.50 (5 700)
6.358 1 450

В ролях: Дэнни ДеВито, Мэттью Бродерик, Кристин Дэвис, Кристин Ченоуэт, Алиа Шокат, Дилан Блу, Сабрина Элдридж, Келли Элдридж, Хорхе Гарсиа, Фред Армизен

Описание: В маленьком североамериканском городке в канун Рождества впору объявлять военное положение: один из жителей решил украсить свой дом иллюминацией, которую было бы можно видеть из космоса.
Это не пришлось по душе сельчанам и особенно его ближайшему соседу. Боевые действия готовы разрушить город. Однако в конце концов противоборствующие стороны открывают для себя истинную ценность Рождества.

Качество: HDTVRip
Формат: AVI
Видео кодек: XviD
Аудио кодек: AC3
Видео: 720x384 (1.88:1), 25 fps, XviD build 47 ~1949 kbps avg, 0.28 bit/pixel
Аудио: 48 kHz, AC3 Dolby Digital, 3/2 (L,C,R,l,r) + LFE ch, ~384.00 kbps avg
Релиз от:
E:\ЗАГРУЗКА\Dobro.pozhalovat.ili.sosedjam.vhod.vospreshen.2006.HDTVRip.Megashara.com.avi
General
Complete name : E:\ЗАГРУЗКА\Dobro.pozhalovat.ili.sosedjam.vhod.vospreshen.2006.HDTVRip.Megashara.com.avi
Format : AVI
Format/Info : Audio Video Interleave
File size : 1.46 GiB
Duration : 1h 29mn
Overall bit rate : 2 343 Kbps
Movie name : Добро пожаловать или соседям вход воспрещен / Deck the Halls
Director : Dark_a
Genre : Comedy
Writing application : VirtualDubMod 1.5.10.2 (build 2540/release)
Original source form/Name : Movie

Video #0
ID : 0
Format : MPEG-4 Visual
Format profile : Advanced Simple@L5
Format settings, BVOP : Yes
Format settings, QPel : No
Format settings, GMC : No warppoints
Format settings, Matrix : Default (MPEG)
Codec ID : XVID
Codec ID/Hint : XviD
Duration : 1h 29mn
Bit rate : 1 950 Kbps
Width : 720 pixels
Height : 384 pixels
Display aspect ratio : 1.875
Frame rate : 25.000 fps
Resolution : 8 bits
Colorimetry : 4:2:0
Scan type : Progressive
Bits/(Pixel*Frame) : 0.282
Stream size : 1.21 GiB (83%)
Writing library : XviD 1.2.0.dev47 (UTC 2006-11-01)
Audio #1
ID : 1
Format : AC-3
Format/Info : Audio Coding 3
Codec ID : 2000
Duration : 1h 29mn
Bit rate mode : Constant
Bit rate : 384 Kbps
Channel(s) : 6 channels
Channel positions : Front: L C R, Surround: L R, LFE
Sampling rate : 48.0 KHz
Stream size : 245 MiB (16%)
Alignment : Split accross interleaves
Interleave, duration : 40 ms (1.00 video frame)
Interleave, preload duration : 500 ms
piratbit.pw



Скачать Добро пожаловать или соседям вход воспрещен через торрент http://piratbit.in.ua/015e5b196162a257394141712c5969b7.jpg Скачать фильм Добро пожаловать или соседям вход воспрещен через торрент бесплантно в хорошем качестве Описание: В маленьком североамериканском городке в канун Рождества впору объявлять военное положение: один из жителей решил украсить свой ... 10 10 1
Info! Золотая раздача, скачанное не засчитывается.
Торрент: Зарегистрирован [2011-01-03 14:02] · скачан: 165 раз
Статус: √ проверено
Размер: 1.46 GB
Как cкачать? Как скачать Добро пожаловать или соседям вход воспрещен через торрент | UTorrent

% Раздел Тема Автор DL S | L
Фильмы 2006-2008 [ 2.74 GB ] Добро пожаловать или соседям вход воспрещен / Deck the Halls [2006 BDRip-AVC] DUB koenig Скачать
2 | 0

28-11-2019 20:33  

Отключить всю рекламу на сайте

    Дорогой пользователь! Огромная просьба, поблагодарите релизера, оцените раздачу и оставьте свои комментарий, если Вы скачали Добро пожаловать или соседям вход воспрещен через торрент бесплатно! Внесите свою лепту в развитие PiratBit!
    Комментировать посты могут только пользователи прошедшие не сложную регистрацию
    Показать сообщения:    

    Добро пожаловать или соседям вход воспрещен через торрент
    Скачать бесплатно Добро пожаловать или соседям вход воспрещен
    Добро пожаловать или соседям вход воспрещен скачать торрент
    Добро пожаловать или соседям вход воспрещен смотреть онлайн
    Cкачать фильм Добро пожаловать или соседям вход воспрещен бесплатно
    Добро пожаловать или соседям вход воспрещен скачать торрент в хорошем качестве
    Добро пожаловать или соседям вход воспрещен смотреть онлайн бесплатно в хорошем качестве


    Вы не можете начинать темы
    Вы не можете отвечать на сообщения
    Вы не можете редактировать свои сообщения
    Вы не можете удалять свои сообщения
    Вы не можете голосовать в опросах
    Вы не можете прикреплять файлы к сообщениям
    Вы можете скачивать файлы