Marvel's Avengers Deluxe Edition (супер цена) 159р. Внимание количество ограничено!!!

2 сезон

iTunes

iTunes

1

iTunes

iTunes

iTunes

WEBRip

iTunes

30
pack

Новость дня

ВАЖНО

!!Акция!!

Alien_RageХит недели

RePack

Horizon Zero Dawn

ИГРА 18+

pack

RePack

jed

!!Акция!!

Alien_Rage

RePack

fifa19

RePack

Assassins Creed: Odyssey

RePack

NEED FOR SPEED™ PAYBACK

4 сезон

9 сезон

Бесстыжие 9 сезон

Все сериалы

все сериалы на PB.wtf

RePack

FAR CRY 5
  

Пять невест (Карен Оганесян) [2011, комедия, BDRip 1080p by msltel] piratbit.pw

Пять невест через торрент piratbit.pw

Размер: 13.07 GB | Добавлен: 1 год 7 мес. назад | Торрент скачан:22 раза
Скачать  

04-02-2019 10:20 Пять невест Скачать торрент  

Оригинальное название: Пять невест
Год выпуска: 2011
Страна: Россия
Жанр: комедия
Продолжительность: 01:43:19
Язык: русский

Режиссер: Карен Оганесян
В ролях: Данила Козловский, Елизавета Боярская, Артур Смольянинов, Светлана Ходченкова, Владимир Яглыч, Юлия Пересильд, Александр Лойе, Ксения Роменкова, Хорен Левонян, Ирина Пегова, Марина Голуб, Андрей Федорцов, Анна Табанина, Михаил Горевой, Валерий Золотухин, Виктор Молчан, Игорь Савочкин, Константин Воробьёв, Алексей Дмитриев, Анна Цуканова-Котт, Светлана Никифорова, Геннадий Фомин, Сергей Жбанков, Борис Гергалов, Тамара Миронова, Александр Сухоцкий, Роман Садчило, Александр Брухацкий, Светлана Некипелова, Алеся Пуховая, Олег Ткачёв, Валерий Кащеев

О фильме: Май 1945 года. Вся страна ликует и строит планы на новую послевоенную жизнь. Счастливые воины-победители, дошедшие до Берлина, мечтают вернуться героями домой. Но их не спешат отпускать… Очень расстроены этим обстоятельством бравые летчики-истребители Вадик, Леша, Гарик, Ваня и Миша. Ведь в их отсутствие всех красивых девчонок могут разобрать! Лёше Каверину повезло — его отправляют в командировку на Родину. У друзей рождается авантюрный план: Леша должен найти друзьям невест и жениться на них, используя удостоверения ребят. И на всё про всё у него всего одни сутки...



Качество: BDRip 1080p
Формат: MKV
Видео: MPEG-4 AVC, 17.5 Mбит/с, 1920x1034
Аудио: русский, AC3, 640 kbps, 6 ch, 48 kHz [оригинал]
Главы/чаптеры
Общее
Уникальный идентификатор : 192483847336068485091999400953781790589 (0x90CF0A60CC9C97FDB2D1B891A005A77D)
Полное имя : D:\Video\Пять невест.2011.BDRip 1080p by msltel.mkv
Формат : Matroska
Версия формата : Version 4
Размер файла : 13,1 Гбайт
Продолжительность : 1 ч. 43 м.
Общий поток : 18,1 Мбит/сек
Название фильма : Rip by msltel
Дата кодирования : UTC 2019-02-04 11:08:00
Программа кодирования : mkvmerge v8.2.0 ('World of Adventure') 64bit
Библиотека кодирования : libebml v1.3.1 + libmatroska v1.4.2

Видео
Идентификатор : 1
Формат : AVC
Формат/Информация : Advanced Video Codec
Профиль формата : High@L4.1
Настройки формата : CABAC / 4 Ref Frames
Параметр CABAC формата : Да
Параметр RefFrames формата : 4 кадра
Идентификатор кодека : V_MPEG4/ISO/AVC
Продолжительность : 1 ч. 43 м.
Битрейт : 17,5 Мбит/сек
Ширина : 1920 пикселей
Высота : 1034 пикселя
Соотношение сторон : 1,85:1
Режим частоты кадров : Постоянный
Частота кадров : 25,000 кадров/сек
Цветовое пространство : YUV
Субдискретизация насыщенности : 4:2:0
Битовая глубина : 8 бит
Тип развёртки : Прогрессивная
Бит/(Пиксели*Кадры) : 0.352
Размер потока : 12,6 Гбайт (96%)
Библиотека кодирования : x264 core 157 r2935 545de2f
Настройки программы : cabac=1 / ref=4 / deblock=1:-2:-2 / analyse=0x3:0x113 / me=umh / subme=11 / psy=1 / psy_rd=1.00:0.15 / mixed_ref=1 / me_range=32 / chroma_me=1 / trellis=2 / 8x8dct=1 / cqm=0 / deadzone=21,11 / fast_pskip=0 / chroma_qp_offset=-3 / threads=6 / lookahead_threads=1 / sliced_threads=0 / nr=0 / decimate=1 / interlaced=0 / bluray_compat=0 / constrained_intra=0 / bframes=8 / b_pyramid=2 / b_adapt=2 / b_bias=0 / direct=1 / weightb=1 / open_gop=0 / weightp=2 / keyint=240 / keyint_min=24 / scenecut=40 / intra_refresh=0 / rc_lookahead=40 / rc=crf / mbtree=0 / crf=14.8 / qcomp=0.60 / qpmin=0 / qpmax=69 / qpstep=4 / vbv_maxrate=62500 / vbv_bufsize=78125 / crf_max=0.0 / nal_hrd=none / filler=0 / ip_ratio=1.40 / pb_ratio=1.30 / aq=1:1.00
Язык : Russian
Default : Да
Forced : Нет

Аудио
Идентификатор : 2
Формат : AC-3
Формат/Информация : Audio Coding 3
Коммерческое название : Dolby Digital
Идентификатор кодека : A_AC3
Продолжительность : 1 ч. 43 м.
Вид битрейта : Постоянный
Битрейт : 640 Кбит/сек
Каналы : 6 каналов
Channel layout : L R C LFE Ls Rs
Частота : 48,0 КГц
Частота кадров : 31,250 кадров/сек (1536 SPF)
Битовая глубина : 16 бит
Метод сжатия : С потерями
Размер потока : 473 Мбайт (4%)
Заголовок : оригинал
Язык : Russian
ServiceKind/String : Complete Main
Default : Да
Forced : Нет

Меню
00:00:00.000 : :Chapter 1
00:02:10.000 : :Chapter 2
00:13:04.240 : :Chapter 3
00:24:42.640 : :Chapter 4
00:39:21.040 : :Chapter 5
00:52:56.080 : :Chapter 6
01:06:34.000 : :Chapter 7
01:18:25.360 : :Chapter 8
01:27:49.360 : :Chapter 9
piratbit.pw



Скачать Пять невест через торрент https://d.radikal.ru/d01/1902/18/f67a0c13dfb2.png Скачать фильм Пять невест через торрент бесплантно в хорошем качестве О фильме: Май 1945 года. Вся страна ликует и строит планы на новую послевоенную жизнь. Счастливые воины-победители, дошедшие до Берлина, ... 10 10 2
Info! Золотая раздача, скачанное не засчитывается.
Торрент: Зарегистрирован [2019-02-04 10:20] · скачан: 22 раз
Статус: √ проверено
Размер: 13.07 GB
Как cкачать? Как скачать Пять невест через торрент | qTorrent

% Раздел Тема Автор DL S | L
Наши фильмы (HD, WEB-DL 720p, 1080p) [ 5.01 GB ] Пять невест [2011 BDRip 720p by msltel] msltel Скачать
1 | 0
Наши сериалы [ 2.14 GB ] Пять невест / Серии 1-4 из 4 [2011 HDTVRip by _Один_777] Полная телеверсия Один 777 Скачать
1 | 0
Наши фильмы 2010-2011 [ 751 MB ] Пять невест [2011 BDRip by _Один_777] Один 777 Скачать
1 | 0
Наши фильмы (HD, WEB-DL 720p, 1080p) [ 4.92 GB ] Пять невест [2011 BDRip 720p] Original Rus Shmel Скачать
1 | 0
Наши фильмы 2010-2011 [ 1.45 GB ] Пять невест [2011 BDRip] Anonymous Скачать
1 | 0
Наши фильмы 2010-2011 [ 1.36 GB ] Пять невест [2011 HDRip] shuller Скачать
1 | 0
Наши фильмы (DVD фильмы) [ 5.95 GB ] Пять невест [2011 DVD9] R5 voovaz Скачать
1 | 0

28-11-2019 20:33  

Отключить всю рекламу на сайте

    Дорогой пользователь! Огромная просьба, поблагодарите релизера, оцените раздачу и оставьте свои комментарий, если Вы скачали Пять невест через торрент бесплатно! Внесите свою лепту в развитие PiratBit!
    Комментировать посты могут только пользователи прошедшие не сложную регистрацию
    Показать сообщения:    

    Пять невест через торрент
    Скачать бесплатно Пять невест
    Пять невест скачать торрент
    Пять невест смотреть онлайн
    Cкачать фильм Пять невест бесплатно
    Пять невест скачать торрент в хорошем качестве
    Пять невест смотреть онлайн бесплатно в хорошем качестве


    Вы не можете начинать темы
    Вы не можете отвечать на сообщения
    Вы не можете редактировать свои сообщения
    Вы не можете удалять свои сообщения
    Вы не можете голосовать в опросах
    Вы не можете прикреплять файлы к сообщениям
    Вы можете скачивать файлы