1 сезон

1 сезон

iTunes

1

КиноПоиск HD

Кинопоиск HD

iTunes

13

1 сезон

RePack

30

Новинка

ВАЖНО

ИГРА 18+

pack

RePack

MK11
pack

Легкие деньги

RePack

jed

RePack

fifa19

RePack

RDR2

RePack

NEED FOR SPEED™ PAYBACK

4 сезон

9 сезон

Бесстыжие 9 сезон

Все сериалы

все сериалы на PB.wtf

RePack

FAR CRY 5
  
Magnet ссылка

Кровавая луна / Die Säge des Todes (Хесус Франко) [1981, ужасы, триллер, детектив, BDRip 1080p by msltel] AVO piratbit.pw

Кровавая луна через торрент piratbit.pw

Размер: 11.55 GB | Добавлен: 2 года 3 мес. назад | Торрент скачан:1 раз
Скачать  

20-01-2019 08:43 Кровавая луна Скачать торрент  

Название: Кровавая луна
Оригинальное название: Die Säge des Todes
Год выпуска: 1981
Страна: Германия (ФРГ), Испания
Жанр: ужасы, триллер, детектив
Продолжительность: 01:24:37
Перевод: авторский

Режиссер: Хесус Франко
В ролях: Оливия Паскаль, Кристоф Мосбрюггер, Александр Вахтер, Коринна Дрюз, Питер Эксакостос, Антония Гарсия, Беатриз Санчо Ниэто

О фильме: Мигель, молодой человек с чудовищно обезображенным лицом, на вечеринке насилует девушку, после чего ножницами закалывает её. Парня помещают в психиатрическую лечебницу. Через пять лет Мигель выходит оттуда на поруки своей сестры Мануэлы... На испанском курорте их семья, в том числе прикованная к инвалидной коляске мать, владеют школой иностранных языков для девушек. Мигель знакомится с одной из учениц по имени Анжела, которая очень нравится ему. Он рассказывает об этом сестре, но Мануэла напоминает брату, что именно половое влечение спровоцировало его нервный срыв пять лет тому назад. Вскоре подруги Анжелы начинают погибать одна за другой самыми разнообразными способами…



Качество: BDRip 1080p
Формат: MKV
Видео: MPEG-4 AVC, 17.8 Mбит/с, 192010820
Аудио 1: русский, AC3, 192 kbps, 2 ch, 48 kHz [авторский, Антон Алексеев]
Аудио 2: английский, DTS, 1509 kbps, 2 ch, 48 kHz [оригинал]
Субтитры: английские
Главы/чаптеры
Общее
Уникальный идентификатор : 195988520860513433798235677024343103933 (0x9372041FA9C95844940DF7179D0919BD)
Полное имя : D:\Video\Кровавая луна.1981.BDRip 1080p by msltel.mkv
Формат : Matroska
Версия формата : Version 4
Размер файла : 11,6 Гбайт
Продолжительность : 1 ч. 24 м.
Общий поток : 19,5 Мбит/сек
Название фильма : Rip by msltel
Дата кодирования : UTC 2019-01-20 11:49:51
Программа кодирования : mkvmerge v8.2.0 ('World of Adventure') 64bit
Библиотека кодирования : libebml v1.3.1 + libmatroska v1.4.2

Видео
Идентификатор : 1
Формат : AVC
Формат/Информация : Advanced Video Codec
Профиль формата : High@L4.1
Настройки формата : CABAC / 4 Ref Frames
Параметр CABAC формата : Да
Параметр RefFrames формата : 4 кадра
Идентификатор кодека : V_MPEG4/ISO/AVC
Продолжительность : 1 ч. 24 м.
Битрейт : 17,8 Мбит/сек
Ширина : 1920 пикселей
Высота : 1080 пикселей
Соотношение сторон : 16:9
Режим частоты кадров : Постоянный
Частота кадров : 23,976 (24000/1001) кадра/сек
Цветовое пространство : YUV
Субдискретизация насыщенности : 4:2:0
Битовая глубина : 8 бит
Тип развёртки : Прогрессивная
Бит/(Пиксели*Кадры) : 0.359
Размер потока : 10,5 Гбайт (91%)
Библиотека кодирования : x264 core 157 r2935 545de2f
Настройки программы : cabac=1 / ref=4 / deblock=1:-2:-2 / analyse=0x3:0x113 / me=umh / subme=11 / psy=1 / psy_rd=1.00:0.15 / mixed_ref=1 / me_range=32 / chroma_me=1 / trellis=2 / 8x8dct=1 / cqm=0 / deadzone=21,11 / fast_pskip=0 / chroma_qp_offset=-3 / threads=6 / lookahead_threads=1 / sliced_threads=0 / nr=0 / decimate=1 / interlaced=0 / bluray_compat=0 / constrained_intra=0 / bframes=9 / b_pyramid=2 / b_adapt=2 / b_bias=0 / direct=1 / weightb=1 / open_gop=0 / weightp=2 / keyint=230 / keyint_min=23 / scenecut=40 / intra_refresh=0 / rc_lookahead=40 / rc=crf / mbtree=0 / crf=19.3 / qcomp=0.60 / qpmin=0 / qpmax=69 / qpstep=4 / vbv_maxrate=62500 / vbv_bufsize=78125 / crf_max=0.0 / nal_hrd=none / filler=0 / ip_ratio=1.40 / pb_ratio=1.30 / aq=1:1.00
Язык : English
Default : Да
Forced : Нет

Аудио #1
Идентификатор : 2
Формат : AC-3
Формат/Информация : Audio Coding 3
Коммерческое название : Dolby Digital
Идентификатор кодека : A_AC3
Продолжительность : 1 ч. 24 м.
Вид битрейта : Постоянный
Битрейт : 192 Кбит/сек
Каналы : 2 канала
Channel layout : L R
Частота : 48,0 КГц
Частота кадров : 31,250 кадров/сек (1536 SPF)
Битовая глубина : 16 бит
Метод сжатия : С потерями
Размер потока : 116 Мбайт (1%)
Заголовок : Антон Алексеев
Язык : Russian
ServiceKind/String : Complete Main
Default : Да
Forced : Нет

Аудио #2
Идентификатор : 3
Формат : DTS
Формат/Информация : Digital Theater Systems
Идентификатор кодека : A_DTS
Продолжительность : 1 ч. 24 м.
Вид битрейта : Постоянный
Битрейт : 1509 Кбит/сек
Каналы : 2 канала
Channel layout : L R
Частота : 48,0 КГц
Частота кадров : 93,750 кадра/сек (512 SPF)
Битовая глубина : 16 бит
Метод сжатия : С потерями
Размер потока : 917 Мбайт (8%)
Заголовок : original
Язык : English
Default : Нет
Forced : Нет

Текст
Идентификатор : 4
Формат : UTF-8
Идентификатор кодека : S_TEXT/UTF8
Идентификатор кодека/Информация : UTF-8 Plain Text
Продолжительность : 1 ч. 21 м.
Битрейт : 33 бит/сек
ElementCount : 732
Размер потока : 20,2 Кбайт (0%)
Заголовок : английские
Язык : English
Default : Нет
Forced : Нет

Меню
00:00:00.000 : en:00:00:00.000
00:06:27.387 : en:00:06:27.387
00:13:12.792 : en:00:13:12.792
00:22:58.377 : en:00:22:58.377
00:29:14.753 : en:00:29:14.753
00:40:57.455 : en:00:40:57.455
00:43:42.620 : en:00:43:42.620
00:51:33.090 : en:00:51:33.090
00:59:59.596 : en:00:59:59.596
01:07:17.033 : en:01:07:17.033
01:14:13.449 : en:01:14:13.449
01:19:30.766 : en:01:19:30.766
piratbit.pw



Скачать Кровавая луна через торрент https://c.radikal.ru/c41/1901/95/081812c58c43.png Скачать фильм Кровавая луна через торрент бесплантно в хорошем качестве О фильме: Мигель, молодой человек с чудовищно обезображенным лицом, на вечеринке насилует девушку, после чего ножницами закалывает её. ... 5 10 1
Торрент: Зарегистрирован [2019-01-20 08:43] · скачан: 1 раз
Статус: √ проверено
Размер: 11.55 GB
Как cкачать? Как скачать Кровавая луна через торрент | UTorrent

% Раздел Тема Автор DL S | L
Фильмы с авторской озвучкой [ 3.66 GB ] Кровавая луна / Die Säge des Todes [1981 BDRip 720p by msltel] AVO msltel Скачать
1 | 0

28-11-2019 20:33  

Отключить всю рекламу на сайте


    Дорогой пользователь! Огромная просьба, поблагодарите релизера, оцените раздачу и оставьте свои комментарий, если Вы скачали Кровавая луна через торрент бесплатно! Внесите свою лепту в развитие PiratBit!
    Комментировать посты могут только пользователи прошедшие не сложную регистрацию
    Показать сообщения:    

    Кровавая луна через торрент
    Скачать бесплатно Кровавая луна
    Кровавая луна скачать торрент
    Кровавая луна смотреть онлайн
    Cкачать фильм Кровавая луна бесплатно
    Кровавая луна скачать торрент в хорошем качестве
    Кровавая луна смотреть онлайн бесплатно в хорошем качестве


    Вы не можете начинать темы
    Вы не можете отвечать на сообщения
    Вы не можете редактировать свои сообщения
    Вы не можете удалять свои сообщения
    Вы не можете голосовать в опросах
    Вы не можете прикреплять файлы к сообщениям
    Вы можете скачивать файлы