Ссылка на приватное зеркало нашего сайта всего за 1$. Внимание количество ограничено!!!

2 сезон

iTunes

iTunes

1

iTunes

iTunes

iTunes

WEBRip

iTunes

30
pack

Новость дня

ВАЖНО

!!Акция!!

Alien_RageХит недели

RePack

Horizon Zero Dawn

ИГРА 18+

pack

RePack

jed

!!Акция!!

Alien_Rage

RePack

fifa19

RePack

Assassins Creed: Odyssey

RePack

NEED FOR SPEED™ PAYBACK

4 сезон

9 сезон

Бесстыжие 9 сезон

Все сериалы

все сериалы на PB.wtf

RePack

FAR CRY 5
  

День до (Александр Котт, Владимир Котт, Александр Карпиловский, Борис Хлебников) [2018, Драма, фантастика, WEB-DL 1080р] piratbit.pw

День до через торрент piratbit.pw

Раздают: 1 [ 0 KB/s ]
Размер: 3.27 GB | Добавлен: 1 год 8 мес. назад | Торрент скачан:322 раза
Скачать  

15-01-2019 18:59 День до Скачать торрент  

День до
  • Год выпуска: 2018
  • Производство: Россия, ПЦ "Среда" при поддержке Фонда кино
  • Жанр: Драма, фантастика
  • Длительность: 01:28:30
  • Субтитры: нет
    Перевод: Оригинал
    Режиссер: Александр Котт, Владимир Котт, Александр Карпиловский, Борис Хлебников




    В ролях: Александр Петров (II), Иван Дубровский, Артемий Шаффер, Даниил Муравьев-Изотов, Дарья Мороз, Елена Лядова, Анатолий Белый, Дана Абызова, Юрий Стоянов, Зоя Буряк, Александр Лыков, Сергей Бурунов, Ксения Раппопорт, Сергей Маковецкий, Андрей Малахов, Иван Краско, Филипп Киркоров
    Описание
    Четыре киноновеллы о самых непохожих людях, которые узнают, что роковое столкновение кометы с Землей произойдет... завтра. Как и с кем они проведут свой последний день? Последний телеведущий на Земле, стоящий насмерть в своей студии, Андрей Малахов обсуждает главную мировую новость – меньше, чем через сутки, произойдет падение огромной кометы, которая уничтожит разом всё человечество. Герои четырех историй: «Рома и Юля», «Мишка», «Поэт», «Наследие человечества» – по-разному проведут последний день своей жизни. Двое молодых влюбленных, разлученных жестоким отцом, стремятся умереть в объятьях друг друга. Тем временем кто-то пытается уйти от хаоса и провести спокойный день в кругу близких; кто-то хочет напоследок увековечить свое имя, а кто-то – совершить как можно больше добрых дел.
  • Качество видео: WEB-DL 1080р
  • Формат: MKV
  • Видео кодек: AVC
  • Аудио кодек: AC3
  • Видео: 1920 x 808 (2.376) at 25.000 fps AVC at 5099 Кбит/сек
  • Аудио: AC-3 at 192 Кбит/сек 2 канала, 48,0 КГц
    Общее
    Уникальный идентификатор : 210946267756296584376798694610371337081 (0x9EB2C5FBC37C6645868CFBC9F713DB79)
    Полное имя : D:\Torrents\Den.do.2016.WEB-DL.(1080p).Getty.mkv
    Формат : Matroska
    Версия формата : Version 4 / Version 2
    Размер файла : 3,27 Гбайт
    Продолжительность : 1 ч. 28 м.
    Общий поток : 5293 Кбит/сек
    Название фильма : Den.do.2016.WEB-DL.(1080p).Getty
    Дата кодирования : UTC 2019-01-14 21:49:35
    Программа кодирования : mkvmerge v7.8.0 ('River Man') 32bit built on Mar 27 2015 16:18:02
    Библиотека кодирования : libebml v1.3.1 + libmatroska v1.4.2

    Видео
    Идентификатор : 1
    Формат : AVC
    Формат/Информация : Advanced Video Codec
    Профиль формата : High@L4
    Параметр CABAC формата : Да
    Параметр ReFrames формата : 4 кадра
    Параметр GOP формата : M=1, N=50
    Идентификатор кодека : V_MPEG4/ISO/AVC
    Продолжительность : 1 ч. 28 м.
    Битрейт : 5099 Кбит/сек
    Ширина : 1920 пикселей
    Высота : 808 пикселей
    Соотношение сторон : 2,40:1
    Режим частоты кадров : Постоянный
    Частота кадров : 25,000 кадров/сек
    Цветовое пространство : YUV
    Субдискретизация насыщенности : 4:2:0
    Битовая глубина : 8 бит
    Тип развёртки : Прогрессивная
    Бит/(Пиксели*Кадры) : 0.131
    Размер потока : 3,15 Гбайт (96%)
    Default : Да
    Forced : Нет

    Аудио
    Идентификатор : 2
    Формат : AC-3
    Формат/Информация : Audio Coding 3
    Параметр Endianness формата : Big
    Идентификатор кодека : A_AC3
    Продолжительность : 1 ч. 28 м.
    Вид битрейта : Постоянный
    Битрейт : 192 Кбит/сек
    Каналы : 2 канала
    Расположение каналов : Front: L R
    Частота : 48,0 КГц
    Частота кадров : 31,250 кадров/сек (1536 spf)
    Битовая глубина : 16 бит
    Метод сжатия : С потерями
    Размер потока : 122 Мбайт (4%)
    ServiceKind/String : Complete Main
    Default : Да
    Forced : Нет
    скриншот   скриншот   скриншот   скриншот  
    piratbit.pw



  • Скачать День до через торрент http://pic1.kartinco.top/images/12/7y9rq.jpg Скачать фильм День до через торрент бесплантно в хорошем качестве Описание Четыре киноновеллы о самых непохожих людях, которые узнают, что роковое столкновение кометы с Землей произойдет... завтра. Как и с ... 8.9 10 9
    Торрент: Зарегистрирован [2019-01-15 18:59] · скачан: 322 раз
    Статус: √ проверено
    Размер: 3.27 GB
    Как cкачать? Как скачать День до через торрент | qTorrent

    % Раздел Тема Автор DL S | L
    Фильмы (HD 720p, 1080p) (48-60 fps) [ 3.82 GB ] Святые из Бундока 2: День всех святых / The Boondock Saints II: All Saints Day [2009 BDRip 720p многоголосый ] slaventi-69 Скачать
    2 | 0
    Фильмы 2009 [ 1.45 GB ] Святые из бундока 2: День всех святых / The Boondock Saints II: All Saints Day [2009 BDRip-AVC MVO] stalonе Скачать
    2 | 0
    Документальные фильмы и телепередачи [ 42.82 GB ] Вторая мировая война - День за Днём- [2005 Документальный DVDRip Оригинал] Бумер Скачать
    2 | 0
    Гонзо [ 2.15 GB ] День с Порнозвездой 5 / Day With A Pornstar 5 [2016 All Sex Oral Gonzo Big Tits Porn Stars WEB-DLRip 480p] Split Scenes sheker187 Скачать
    1 | 0
    Документальные фильмы и телепередачи [ 4.22 GB ] День сенсационных материалов с Игорем Прокопенко - эфир 02.10.2016 [01-13 из 13] [2016 Документальный расследования история WEB-DLRip-AVC Оригинальный] schultz Скачать
    1 | 0
    R.G.Resident - Документалистика, Видео [ 27.75 GB ] День космических историй [2011 - 2016 Документальный научно-познавательный WEBDLRip SATRip / КПК ] Стpана Скачать
    1 | 0
    Научно-популярные фильмы [ 631 MB ] День космических историй. В поисках гравитации [2016 Документальный научно-познавательный история SATRip Оригинальный] schultz Скачать
    1 | 0

    28-11-2019 20:33  

    Отключить всю рекламу на сайте

    15-01-2019 20:22 День до Скачать торрент  

    Спасибо Бро piratbit.pw



    15-01-2019 21:40 День до Скачать торрент  

    rayl116rus писал(а):

    Спасибо Бро

    piratbit.pw



    15-01-2019 23:19 День до Скачать торрент  

    Топик был перенесен из форума Оформление раздач (Кино, Видео и ТВ) в форум Наши фильмы (HD, WEB-DL 720p, 1080p)


    Enigma2010piratbit.pw



      Дорогой пользователь! Огромная просьба, поблагодарите релизера, оцените раздачу и оставьте свои комментарий, если Вы скачали День до через торрент бесплатно! Внесите свою лепту в развитие PiratBit!
      Комментировать посты могут только пользователи прошедшие не сложную регистрацию
      Показать сообщения:    

      День до через торрент
      Скачать бесплатно День до
      День до скачать торрент
      День до смотреть онлайн
      Cкачать фильм День до бесплатно
      День до скачать торрент в хорошем качестве
      День до смотреть онлайн бесплатно в хорошем качестве


      Вы не можете начинать темы
      Вы не можете отвечать на сообщения
      Вы не можете редактировать свои сообщения
      Вы не можете удалять свои сообщения
      Вы не можете голосовать в опросах
      Вы не можете прикреплять файлы к сообщениям
      Вы можете скачивать файлы