1 сезон

1 сезон

iTunes

1

КиноПоиск HD

Кинопоиск HD

iTunes

13

1 сезон

RePack

30

Новинка

ВАЖНО

ИГРА 18+

pack

RePack

MK11
pack

Легкие деньги

RePack

jed

RePack

fifa19

RePack

RDR2

RePack

NEED FOR SPEED™ PAYBACK

4 сезон

9 сезон

Бесстыжие 9 сезон

Все сериалы

все сериалы на PB.wtf

RePack

FAR CRY 5
  
Magnet ссылка

Старик с пистолетом / The Old Man & the Gun (Дэвид Лоури) [2018, драма, комедия, криминал, биография, BDRip 1080p] [AVO] (Яроцкий) piratbit.pw

Старик с пистолетом через торрент piratbit.pw

Размер: 13.02 GB | Добавлен: 2 года 3 мес. назад | Торрент скачан:27 раз
Скачать  

13-01-2019 15:37 Старик с пистолетом Скачать торрент  

Старик с пистолетом / The Old Man & the Gun
Год выхода: 2018
Страна: США
Жанр: драма, комедия, криминал, биография
Продолжительность: 01:33:03
Перевод: Авторский (одноголосый, закадровый) - [М. Яроцкий]
Субтитры: нет
Режиссер: Дэвид Лоури / David Lowery
В ролях: Роберт Редфорд, Сисси Спейсек, Кейси Аффлек, Дэнни Гловер, Том Уэйтс, Тика Самптер, Ари Элизабет Джонсон, Тиган Джонсон, Джин Джонс, Джон Дэвид Вашингтон, Элизабет Мосс
О фильме:
Правдивая история неисправимого вора Форреста Таккера, который большую часть жизни посвятил обчищению банков и побегу из тюрем. На закате своей беспокойной «карьеры» 78-летний Таккер снова берётся за любимое дело, невзирая на преследование молодого детектива и обязательства перед преданной женой.


ratingскриншот  

Релиз - скриншот  

Качество: BDRip 1080p
Формат: MKV
Видео: MPEG-4 AVC, 18,9 Мбит/с, 1920x804
Аудио #1: 48 kHz, AC3 Dolby Digital, 6 ch, ~448 kbps avg (RUS)
Аудио #2: 48 kHz, AC3 Dolby Digital, 6 ch, ~640 kbps avg (ENG)
General
Unique ID : 218609658649664194774326182820165903572 (0xA476B053661D8371CFA815EF056AE4D4)
Complete name : F:\The.Old.Man.and.the.Gun.2018.BDRip.1080p.seleZen.mkv
Format : Matroska
Format version : Version 4 / Version 2
File size : 13.0 GiB
Duration : 1 h 33 min
Overall bit rate : 20.0 Mb/s
Movie name : The Old Man and the Gun 2018 from селезень
Encoded date : UTC 2019-01-13 14:55:07
Writing application : mkvmerge v29.0.0 ('Like It Or Not') 64-bit
Writing library : libebml v1.3.6 + libmatroska v1.4.9

Video
ID : 1
Format : AVC
Format/Info : Advanced Video Codec
Format profile : High@L4.1
Format settings : CABAC / 5 Ref Frames
Format settings, CABAC : Yes
Format settings, RefFrames : 5 frames
Codec ID : V_MPEG4/ISO/AVC
Duration : 1 h 33 min
Bit rate : 18.5 Mb/s
Width : 1 920 pixels
Height : 804 pixels
Display aspect ratio : 2.40:1
Frame rate mode : Constant
Frame rate : 23.976 (24000/1001) FPS
Color space : YUV
Chroma subsampling : 4:2:0
Bit depth : 8 bits
Scan type : Progressive
Bits/(Pixel*Frame) : 0.501
Stream size : 12.1 GiB (93%)
Title : playHD
Writing library : x264 core 155 r2867+82 a249126 t_mod_Custom_2 [8-bit@all X86_64]
Encoding settings : cabac=1 / ref=5 / deblock=1:-3:-3 / analyse=0x3:0x133 / me=umh / subme=10 / psy=1 / fade_compensate=0.00 / psy_rd=1.00:0.00 / mixed_ref=1 / me_range=32 / chroma_me=1 / trellis=2 / 8x8dct=1 / cqm=0 / deadzone=21,11 / fast_pskip=0 / chroma_qp_offset=-2 / threads=24 / lookahead_threads=6 / sliced_threads=0 / nr=0 / decimate=0 / interlaced=0 / bluray_compat=0 / constrained_intra=0 / fgo=0 / bframes=11 / b_pyramid=2 / b_adapt=2 / b_bias=0 / direct=3 / weightb=1 / open_gop=0 / weightp=2 / keyint=250 / keyint_min=23 / scenecut=40 / intra_refresh=0 / rc_lookahead=60 / rc=crf / mbtree=0 / crf=18.1000 / qcomp=0.60 / qpmin=0:0:0 / qpmax=69:69:69 / qpstep=4 / vbv_maxrate=62500 / vbv_bufsize=78125 / crf_max=0.0 / nal_hrd=none / filler=0 / ip_ratio=1.30 / pb_ratio=1.20 / aq=1:0.85 / aq-sensitivity=10.00 / aq-factor=1.00:1.00:1.00 / aq2=0 / aq3=0 / zones=2240,2727,crf=16.8/21389,21500,crf=17/22323,22377,crf=17/23234,23457,crf=17/25147,25232,crf=17/26902,27049,crf=17/40347,40646,crf=16.8/44865,44898,crf=14.5/44965,44994,crf=14.5/84356,84442,crf=17/84606,84707,crf=17/87856,89844,crf=16.8/90396,90532,crf=16.8/90957,91083,crf=16.8
Language : English
Default : Yes
Forced : No

Audio #1
ID : 2
Format : AC-3
Format/Info : Audio Coding 3
Format settings, Endianness : Big
Codec ID : A_AC3
Duration : 1 h 33 min
Bit rate mode : Constant
Bit rate : 448 kb/s
Channel(s) : 6 channels
Channel positions : Front: L C R, Side: L R, LFE
Sampling rate : 48.0 kHz
Frame rate : 31.250 FPS (1536 SPF)
Bit depth : 16 bits
Compression mode : Lossy
Stream size : 298 MiB (2%)
Title : AVO [kyberpunk]
Language : Russian
Service kind : Complete Main
Default : Yes
Forced : Yes

Audio #2
ID : 3
Format : AC-3
Format/Info : Audio Coding 3
Format settings, Endianness : Big
Codec ID : A_AC3
Duration : 1 h 33 min
Bit rate mode : Constant
Bit rate : 640 kb/s
Channel(s) : 6 channels
Channel positions : Front: L C R, Side: L R, LFE
Sampling rate : 48.0 kHz
Frame rate : 31.250 FPS (1536 SPF)
Bit depth : 16 bits
Compression mode : Lossy
Stream size : 426 MiB (3%)
Title : Original
Language : English
Service kind : Complete Main
Default : No
Forced : No

Text #1
ID : 4
Format : UTF-8
Codec ID : S_TEXT/UTF8
Codec ID/Info : UTF-8 Plain Text
Title : Full
Language : English
Default : No
Forced : No

Text #2
ID : 5
Format : UTF-8
Codec ID : S_TEXT/UTF8
Codec ID/Info : UTF-8 Plain Text
Title : SDH
Language : English
Default : No
Forced : No

Menu
00:00:00.000 : en:00:00:00.000
00:03:21.618 : en:00:03:21.618
00:08:18.498 : en:00:08:18.498
00:13:35.940 : en:00:13:35.940
00:19:34.507 : en:00:19:34.507
00:23:02.214 : en:00:23:02.214
00:26:35.761 : en:00:26:35.761
00:30:38.962 : en:00:30:38.962
00:34:17.472 : en:00:34:17.472
00:38:02.155 : en:00:38:02.155
00:41:30.697 : en:00:41:30.697
00:44:40.887 : en:00:44:40.887
00:48:19.230 : en:00:48:19.230
00:50:06.003 : en:00:50:06.003
00:53:44.304 : en:00:53:44.304
00:56:18.875 : en:00:56:18.875
01:00:09.981 : en:01:00:09.981
01:04:19.022 : en:01:04:19.022
01:09:40.968 : en:01:09:40.968
01:14:20.790 : en:01:14:20.790
01:18:02.595 : en:01:18:02.595
01:21:18.248 : en:01:21:18.248
01:24:33.944 : en:01:24:33.944
01:26:49.996 : en:01:26:49.996

скриншот  скриншот  скриншот  
piratbit.pw



Скачать Старик с пистолетом через торрент https://i6.imageban.ru/out/2019/01/09/5d8f563706c2f1b60912350787e0a688.jpg Скачать фильм Старик с пистолетом через торрент бесплантно в хорошем качестве О фильме:Правдивая история неисправимого вора Форреста Таккера, который большую часть жизни посвятил обчищению банков и побегу из тюрем. На ... 10 10 1
Торрент: Зарегистрирован [2019-01-13 15:37] · скачан: 27 раз
Статус: √ проверено
Размер: 13.02 GB
Как cкачать? Как скачать Старик с пистолетом через торрент | UTorrent

28-11-2019 20:33  

Отключить всю рекламу на сайте

    Дорогой пользователь! Огромная просьба, поблагодарите релизера, оцените раздачу и оставьте свои комментарий, если Вы скачали Старик с пистолетом через торрент бесплатно! Внесите свою лепту в развитие PiratBit!
    Комментировать посты могут только пользователи прошедшие не сложную регистрацию
    Показать сообщения:    

    Старик с пистолетом через торрент
    Скачать бесплатно Старик с пистолетом
    Старик с пистолетом скачать торрент
    Старик с пистолетом смотреть онлайн
    Cкачать фильм Старик с пистолетом бесплатно
    Старик с пистолетом скачать торрент в хорошем качестве
    Старик с пистолетом смотреть онлайн бесплатно в хорошем качестве


    Вы не можете начинать темы
    Вы не можете отвечать на сообщения
    Вы не можете редактировать свои сообщения
    Вы не можете удалять свои сообщения
    Вы не можете голосовать в опросах
    Вы не можете прикреплять файлы к сообщениям
    Вы можете скачивать файлы