Ссылка на приватное зеркало нашего сайта всего за 1$. Внимание количество ограничено!!!

2 сезон

iTunes

iTunes

1

iTunes

iTunes

iTunes

WEBRip

iTunes

30
pack

Новость дня

ВАЖНО

!!Акция!!

Alien_RageХит недели

RePack

Horizon Zero Dawn

ИГРА 18+

pack

RePack

jed

!!Акция!!

Alien_Rage

RePack

fifa19

RePack

Assassins Creed: Odyssey

RePack

NEED FOR SPEED™ PAYBACK

4 сезон

9 сезон

Бесстыжие 9 сезон

Все сериалы

все сериалы на PB.wtf

RePack

FAR CRY 5
  

Как приручить дракона / How to Train Your Dragon (Дин ДеБлуа , Крис Сандерс) [2010, мультфильм, фэнтези, комедия, UHD BDRemux 2160p] DUB + DVO + AVO + VO piratbit.pw

Как приручить дракона через торрент piratbit.pw

Раздают: 2 [ 0 KB/s ]
Размер: 37.44 GB | Добавлен: 1 год 8 мес. назад | Торрент скачан:120 раз
Скачать  

12-01-2019 02:24 Как приручить дракона Скачать торрент  

Как приручить дракона / How to Train Your Dragon««One adventure will change two worlds»»

Год выпуска: 2010
Страна: США
Жанр: мультфильм, фэнтези, комедия, приключения, семейный
Продолжительность: 01:37:51
Перевод: Дублированный, профессиональный двухголосый, авторский, любительский одноголосый
Субтитры: Русские (BD, авторские Воронин), английские
Режиссер: Дин ДеБлуа , Крис Сандерс
В ролях:

Джей Барушель (Hiccup, озвучка), Джерард Батлер (Stoick, озвучка), Крэйг Фергюсон (Gobber, озвучка), Америка Феррера (Astrid, озвучка), Джона Хилл (Snotlout, озвучка), Кристофер Минц-Плассе (Fishlegs, озвучка), ТиДжей Миллер (Tuffnut, озвучка), Кристен Уиг (Ruffnut, озвучка), Робин Аткин Даунс (Ack, озвучка), Филип МакГрэйд (Starkard, озвучка), Кирон Эллиотт (Hoark the Haggard, озвучка), Эшли Дженсен (Phlegma the Fierce, озвучка)
Описание:
Вы узнаете историю подростка Иккинга, которому не слишком близки традиции его героического племени, много лет ведущего войну с драконами. Мир Иккинга переворачивается с ног на голову, когда он неожиданно встречает дракона Беззубика, который поможет ему и другим викингам увидеть привычный мир с совершенно другой стороны...
Рейтинг:

MPAA: PG - Рекомендуется присутствие родителей
Качество: UHD BDRemux 2160p
Формат: MKV
Видео: HEVC HDR, 44,9 Мбит/с, 3840x2160, 23.976 Кадр/с, 10 бит
Аудио №1: Russian / Dolby Digital Audio / 5.1 / 48 kHz / 640 kbps Полное дублирование
Аудио №2: Russian / DTS Audio / 5.1 / 48 kHz / 1509 kbps Кубик в кубе
Аудио №3: Russian / Dolby Digital Audio / 5.1 / 48 kHz / 448 kbps А. Гаврилов
Аудио №4: Russian / DTS Audio / 5.1 / 48 kHz / 1509 kbps Киреев по переводу Гоблина
Аудио №5: English / DTS-HD Master Audio / 7.1 / 48 kHz / 5554 kbps Оригинал
Навигация по главам: есть
General
Unique ID : 25812516906004060068581295223879228248 (0x136B4F573D73D232E58652BA5903DB58)
Complete name : X:\Releases\How.to.Train.Your.Dragon.2010.BluRay.REMUX.HEVC.HDR.2160p.mkv
Format : Matroska
Format version : Version 4
File size : 37.4 GiB
Duration : 1 h 38 min
Overall bit rate mode : Variable
Overall bit rate : 54.6 Mb/s
Encoded date : UTC 2019-01-11 17:46:51
Writing application : mkvmerge v30.1.0 ('Forever And More') 64-bit
Writing library : libebml v1.3.6 + libmatroska v1.4.9
Attachments : poster.jpg

Video
ID : 1
Format : HEVC
Format/Info : High Efficiency Video Coding
Commercial name : HDR10
Format profile : Main 10@L5.1@High
Codec ID : V_MPEGH/ISO/HEVC
Duration : 1 h 38 min
Bit rate : 44.9 Mb/s
Width : 3 840 pixels
Height : 2 160 pixels
Display aspect ratio : 16:9
Frame rate mode : Constant
Frame rate : 23.976 (24000/1001) FPS
Color space : YUV
Chroma subsampling : 4:2:0 (Type 2)
Bit depth : 10 bits
Bits/(Pixel*Frame) : 0.226
Stream size : 30.8 GiB (82%)
Default : Yes
Forced : No
Color range : Limited
Color primaries : BT.2020
Transfer characteristics : PQ
Matrix coefficients : BT.2020 non-constant
Mastering display color pri : Display P3
Mastering display luminance : min: 0.0050 cd/m2, max: 1000 cd/m2
Maximum Content Light Level : 998 cd/m2
Maximum Frame-Average Light : 274 cd/m2

Audio #1
ID : 2
Format : AC-3
Format/Info : Audio Coding 3
Commercial name : Dolby Digital
Codec ID : A_AC3
Duration : 1 h 38 min
Bit rate mode : Constant
Bit rate : 640 kb/s
Channel(s) : 6 channels
Channel layout : L R C LFE Ls Rs
Sampling rate : 48.0 kHz
Frame rate : 31.250 FPS (1536 SPF)
Bit depth : 16 bits
Compression mode : Lossy
Stream size : 449 MiB (1%)
Title : Полное дублирование
Language : Russian
Service kind : Complete Main
Default : Yes
Forced : No

Audio #2
ID : 3
Format : DTS
Format/Info : Digital Theater Systems
Codec ID : A_DTS
Duration : 1 h 38 min
Bit rate mode : Constant
Bit rate : 1 509 kb/s
Channel(s) : 6 channels
Channel layout : C L R Ls Rs LFE
Sampling rate : 48.0 kHz
Frame rate : 93.750 FPS (512 SPF)
Bit depth : 24 bits
Compression mode : Lossy
Stream size : 1.03 GiB (3%)
Title : DVO (Кубик в кубе)
Language : Russian
Default : No
Forced : No

Audio #3
ID : 4
Format : AC-3
Format/Info : Audio Coding 3
Commercial name : Dolby Digital
Codec ID : A_AC3
Duration : 1 h 38 min
Bit rate mode : Constant
Bit rate : 448 kb/s
Channel(s) : 6 channels
Channel layout : L R C LFE Ls Rs
Sampling rate : 48.0 kHz
Frame rate : 31.250 FPS (1536 SPF)
Bit depth : 16 bits
Compression mode : Lossy
Stream size : 315 MiB (1%)
Title : А. Гаврилов
Language : Russian
Service kind : Complete Main
Default : No
Forced : No

Audio #4
ID : 5
Format : DTS
Format/Info : Digital Theater Systems
Codec ID : A_DTS
Duration : 1 h 38 min
Bit rate mode : Constant
Bit rate : 1 509 kb/s
Channel(s) : 6 channels
Channel layout : C L R Ls Rs LFE
Sampling rate : 48.0 kHz
Frame rate : 93.750 FPS (512 SPF)
Bit depth : 24 bits
Compression mode : Lossy
Stream size : 1.03 GiB (3%)
Title : VO (Киреев по переводу Гоблина)
Language : Russian
Default : No
Forced : No

Audio #5
ID : 6
Format : DTS XLL X
Format/Info : Digital Theater Systems
Commercial name : DTS-HD Master Audio
Codec ID : A_DTS
Duration : 1 h 38 min
Bit rate mode : Variable
Bit rate : 5 554 kb/s
Channel(s) : 8 channels
Channel(s)_Original : Object Based
Channel layout : Object Based
Sampling rate : 48.0 kHz
Frame rate : 93.750 FPS (512 SPF)
Bit depth : 24 bits
Stream size : 3.81 GiB (10%)
Title : Оригинал
Language : English
Default : No
Forced : No

Text #1
ID : 7
Format : UTF-8
Codec ID : S_TEXT/UTF8
Codec ID/Info : UTF-8 Plain Text
Duration : 1 h 36 min
Bit rate : 71 b/s
Count of elements : 875
Stream size : 50.8 KiB (0%)
Title : BD RUS полные
Language : Russian
Default : No
Forced : No

Text #2
ID : 8
Format : UTF-8
Codec ID : S_TEXT/UTF8
Codec ID/Info : UTF-8 Plain Text
Duration : 1 h 28 min
Bit rate : 78 b/s
Count of elements : 886
Stream size : 50.9 KiB (0%)
Title : Авторские субтитры - Е. Воронин (voronine)
Language : Russian
Default : No
Forced : No

Text #3
ID : 9
Format : UTF-8
Codec ID : S_TEXT/UTF8
Codec ID/Info : UTF-8 Plain Text
Duration : 1 h 28 min
Bit rate : 46 b/s
Count of elements : 916
Stream size : 29.9 KiB (0%)
Title : English-SRT
Language : English
Default : Yes
Forced : No

Menu
00:00:00.000 : :Chapter 1
00:09:03.793 : :Chapter 2
00:11:56.006 : :Chapter 3
00:15:35.059 : :Chapter 4
00:22:21.089 : :Chapter 5
00:28:05.725 : :Chapter 6
00:33:38.224 : :Chapter 7
00:39:31.160 : :Chapter 8
00:43:52.713 : :Chapter 9
00:47:32.391 : :Chapter 10
00:50:11.216 : :Chapter 11
01:00:19.824 : :Chapter 12
01:05:11.407 : :Chapter 13
01:09:52.188 : :Chapter 14
01:13:02.211 : :Chapter 15
01:23:50.066 : :Chapter 16
01:29:18.519 : :Chapter 17
piratbit.pw



Скачать Как приручить дракона через торрент https://c.radikal.ru/c21/1901/64/8a043c8820b1.jpg Скачать фильм Как приручить дракона через торрент бесплантно в хорошем качестве Описание: Вы узнаете историю подростка Иккинга, которому не слишком близки традиции его героического племени, много лет ведущего войну с ... 10 10 2
Info! Золотая раздача, скачанное не засчитывается.
Торрент: Зарегистрирован [2019-01-12 02:24] · скачан: 120 раз
Статус: √ проверено
Размер: 37.44 GB
Как cкачать? Как скачать Как приручить дракона через торрент | qTorrent

28-11-2019 20:33  

Отключить всю рекламу на сайте

    Дорогой пользователь! Огромная просьба, поблагодарите релизера, оцените раздачу и оставьте свои комментарий, если Вы скачали Как приручить дракона через торрент бесплатно! Внесите свою лепту в развитие PiratBit!
    Комментировать посты могут только пользователи прошедшие не сложную регистрацию
    Показать сообщения:    

    Как приручить дракона через торрент
    Скачать бесплатно Как приручить дракона
    Как приручить дракона скачать торрент
    Как приручить дракона смотреть онлайн
    Cкачать фильм Как приручить дракона бесплатно
    Как приручить дракона скачать торрент в хорошем качестве
    Как приручить дракона смотреть онлайн бесплатно в хорошем качестве


    Вы не можете начинать темы
    Вы не можете отвечать на сообщения
    Вы не можете редактировать свои сообщения
    Вы не можете удалять свои сообщения
    Вы не можете голосовать в опросах
    Вы не можете прикреплять файлы к сообщениям
    Вы можете скачивать файлы