1 сезон

1 сезон

iTunes

1

КиноПоиск HD

Кинопоиск HD

iTunes

13

1 сезон

RePack

30

Новинка

ВАЖНО

ИГРА 18+

pack

RePack

MK11
pack

Легкие деньги

RePack

jed

RePack

fifa19

RePack

RDR2

RePack

NEED FOR SPEED™ PAYBACK

4 сезон

9 сезон

Бесстыжие 9 сезон

Все сериалы

все сериалы на PB.wtf

RePack

FAR CRY 5
  
Magnet ссылка

Я люблю мужчину в униформе / I Love a Man in Uniform (Дэвид Уэллингтон) [1993, триллер, драма, DVDRip-AVC] [AVO] (Леонид Володарский) piratbit.pw

Я люблю мужчину в униформе через торрент piratbit.pw

Размер: 1.19 GB | Добавлен: 2 года 3 мес. назад | Торрент скачан:2 раза
Скачать  

09-01-2019 13:36 Я люблю мужчину в униформе Скачать торрент  

Я люблю мужчину в униформе / I Love a Man in Uniform Страна: Канада
Жанр: триллер, драма
Год выпуска: 1993
Продолжительность: 01:34:33
Перевод: Авторский (одноголосый закадровый) Леонид Володарский
Субтитры: нет

Режиссер: Дэвид Уэллингтон / David Wellington

В ролях: Том МакКэмус, Брижит Бако, Кевин Тай, Дэвид Хемблен, Алекс Харзи, Грэм МакФерсон, Дэниэл МакАйвор, Венди Хопкинс, Кирстен Кайферл, Табита Сен-Жермен...

Описание: Актер — любитель Генри Англер, играющий роль полицейского в телесериале «Волна насилия», так входит в образ, что чувство реальности потеряно. Он сам становится частью волны насилия, которая накатывается на город.
rating
Сэмпл: http://sendfile.su/1466822

Качество видео: DVDRip-AVC
Формат видео: MKV
Видео: 712x572 (16:9) @ 1012x572, 25.000 fps, AVC, ~1349 Kbps, 0.132 bits/pixel
Аудио 1: Russian, 48.0 KHz, AC3, 2 ch, 192 Kbps - Леонид Володарский
Аудио 2: English, 48.0 KHz, AC3, 2 ch, 224 Kbps
General
Unique ID : 185767292045337088606298289367705803963 (0x8BC17AA29D0B1E48089F5A20F9195CBB)
Complete name : C:\Harter Mann in Uniform.mkv
Format : Matroska
Format version : Version 4 / Version 2
File size : 1.19 GiB
Duration : 1 h 34 min
Overall bit rate : 1 801 kb/s
Encoded date : UTC 2019-01-09 08:43:09
Writing application : mkvmerge v30.1.0 ('Forever And More') 64-bit
Writing library : libebml v1.3.6 + libmatroska v1.4.9

Video
ID : 1
Format : AVC
Format/Info : Advanced Video Codec
Format profile : High@L3.1
Format settings : CABAC / 9 Ref Frames
Format settings, CABAC : Yes
Format settings, ReFrames : 9 frames
Codec ID : V_MPEG4/ISO/AVC
Duration : 1 h 34 min
Bit rate : 1 383 kb/s
Width : 712 pixels
Height : 572 pixels
Display aspect ratio : 16:9
Original display aspect rat : 16:9
Frame rate mode : Constant
Frame rate : 25.000 FPS
Color space : YUV
Chroma subsampling : 4:2:0
Bit depth : 8 bits
Scan type : Progressive
Bits/(Pixel*Frame) : 0.136
Stream size : 935 MiB (77%)
Writing library : x264 core 122
Encoding settings : cabac=1 / ref=9 / deblock=1:-2:-2 / analyse=0x3:0x133 / me=umh / subme=9 / psy=1 / psy_rd=1.00:0.00 / mixed_ref=1 / me_range=24 / chroma_me=1 / trellis=2 / 8x8dct=1 / cqm=0 / deadzone=21,11 / fast_pskip=0 / chroma_qp_offset=-2 / threads=6 / sliced_threads=0 / nr=0 / decimate=1 / interlaced=0 / bluray_compat=0 / constrained_intra=0 / bframes=6 / b_pyramid=2 / b_adapt=2 / b_bias=0 / direct=3 / weightb=1 / open_gop=0 / weightp=2 / keyint=250 / keyint_min=25 / scenecut=40 / intra_refresh=0 / rc_lookahead=50 / rc=crf / mbtree=1 / crf=18.5 / qcomp=0.60 / qpmin=3 / qpmax=69 / qpstep=4 / ip_ratio=1.40 / aq=1:1.20
Language : English
Default : Yes
Forced : No
Color range : Limited
Color primaries : BT.601 PAL
Transfer characteristics : BT.709
Matrix coefficients : BT.601

Audio #1
ID : 2
Format : AC-3
Format/Info : Audio Coding 3
Commercial name : Dolby Digital
Codec ID : A_AC3
Duration : 1 h 34 min
Bit rate mode : Constant
Bit rate : 192 kb/s
Channel(s) : 2 channels
Channel layout : L R
Sampling rate : 48.0 kHz
Frame rate : 31.250 FPS (1536 SPF)
Bit depth : 16 bits
Compression mode : Lossy
Stream size : 130 MiB (11%)
Title : Леонид Володарский
Language : Russian
Service kind : Complete Main
Default : Yes
Forced : No

Audio #2
ID : 3
Format : AC-3
Format/Info : Audio Coding 3
Commercial name : Dolby Digital
Codec ID : A_AC3
Duration : 1 h 34 min
Bit rate mode : Constant
Bit rate : 224 kb/s
Channel(s) : 2 channels
Channel layout : L R
Sampling rate : 48.0 kHz
Frame rate : 31.250 FPS (1536 SPF)
Bit depth : 16 bits
Compression mode : Lossy
Stream size : 151 MiB (12%)
Language : English
Service kind : Complete Main
Default : No
Forced : No

Menu
00:00:00.000 : The Shot
00:05:24.720 : Audition
00:14:04.960 : The Uniform
00:22:23.080 : Raid
00:26:05.440 : Action!
00:34:07.920 : Rehearsals
00:44:05.440 : "We Are Not a Couple!"
00:56:51.600 : Flanagan Is Dead
01:05:52.960 : The Acquaintance of Frank
01:20:07.840 : Visit at Night
01:26:03.400 : Officer Down / End Credits
скриншот  скриншот  скриншот  
piratbit.pw



Скачать Я люблю мужчину в униформе через торрент https://i3.imageban.ru/out/2019/01/09/0d82bed0a5bdb5ebe6792e42b5f57ec2.jpg Скачать фильм Я люблю мужчину в униформе через торрент бесплантно в хорошем качестве Описание: Актер — любитель Генри Англер, играющий роль полицейского в телесериале «Волна насилия», так входит в образ, что чувство ... 5 10 1
Торрент: Зарегистрирован [2019-01-09 13:36] · скачан: 2 раз
Статус: √ проверено
Размер: 1.19 GB
Как cкачать? Как скачать Я люблю мужчину в униформе через торрент | UTorrent

28-11-2019 20:33  

Отключить всю рекламу на сайте

    Дорогой пользователь! Огромная просьба, поблагодарите релизера, оцените раздачу и оставьте свои комментарий, если Вы скачали Я люблю мужчину в униформе через торрент бесплатно! Внесите свою лепту в развитие PiratBit!
    Комментировать посты могут только пользователи прошедшие не сложную регистрацию
    Показать сообщения:    

    Я люблю мужчину в униформе через торрент
    Скачать бесплатно Я люблю мужчину в униформе
    Я люблю мужчину в униформе скачать торрент
    Я люблю мужчину в униформе смотреть онлайн
    Cкачать фильм Я люблю мужчину в униформе бесплатно
    Я люблю мужчину в униформе скачать торрент в хорошем качестве
    Я люблю мужчину в униформе смотреть онлайн бесплатно в хорошем качестве


    Вы не можете начинать темы
    Вы не можете отвечать на сообщения
    Вы не можете редактировать свои сообщения
    Вы не можете удалять свои сообщения
    Вы не можете голосовать в опросах
    Вы не можете прикреплять файлы к сообщениям
    Вы можете скачивать файлы