Ссылка на приватное зеркало нашего сайта всего за 1$. Внимание количество ограничено!!!

2 сезон

iTunes

iTunes

1

iTunes

iTunes

iTunes

WEBRip

iTunes

30
pack

Вам бонус

ВАЖНО

!!Акция!!

Alien_RageХит недели

RePack

Horizon Zero Dawn

ИГРА 18+

pack

RePack

jed

!!Акция!!

Alien_Rage

RePack

fifa19

RePack

Assassins Creed: Odyssey

RePack

NEED FOR SPEED™ PAYBACK

4 сезон

9 сезон

Бесстыжие 9 сезон

Все сериалы

все сериалы на PB.wtf

RePack

FAR CRY 5
  

Каникулы Кроша (Григорий Аронов) [1980 г., Детектив, детский, приключения, DVDRip] piratbit.pw

Каникулы Кроша через торрент piratbit.pw

Размер: 2.2 GB | Добавлен: 1 год 8 мес. назад | Торрент скачан:12 раз
Скачать  

04-01-2019 20:51 Каникулы Кроша Скачать торрент  

Каникулы Кроша
Год выпуска: 1980
Страна: СССР
Жанр: Детектив, детский, приключения
Продолжительность: 04:36:05
Субтитры: Отсутствуют

Режиссер: Григорий Аронов



В ролях: Василий Фунтиков, Геннадий Кузнецов, Владимир Сирота, Владимир Сальников, Ольга Битюкова, Владимир Корецкий, Вера Новикова, Нина Тер-Осипян, Елена Тяпкина, Владимир Заманский, Любовь Стриженова

Описание: Сергей Крашенинников (Крош) перешел в десятый класс. Лето впереди было долгое. Но думал ли Крош, что станет героем настоящего детектива? Во всяком случае, он этого очень хотел. Однажды, совершенно случайно, Крош познакомился с необычным человеком, коллекционером японских миниатюр - нэцке. Но вскоре появились подозрения, что коллекционер - это настоящий махинатор. И Крош решил вывести его на чистую воду...

Качество: DVDRip
Формат: AVI
Видео кодек: XviD
Аудио кодек: MPEG
Видео: XviD, 656x512 , 25.0fps, 1000 Kbps
Аудио#1: MPEG , 2 ch , 48,0 kHz , 128 kbps
скриншот   скриншот   скриншот   скриншот  

General
Complete name : Kanikuly.Krosha.1980.O.DVDRip.2100.MediaClub.CurHaJI.avi
Format : AVI
Format/Info : Audio Video Interleave
Format profile : OpenDML
File size : 2.20 GiB
Duration : 4h 36mn
Overall bit rate : 1 139 Kbps
Movie name : Kanikuly.Krosha.1980.O.DVDRip.2100.MediaClub.CurHaJI
Writing application : Lavf53.13.0
Writing library : VirtualDub build 35491/release

Video
ID : 0
Format : MPEG-4 Visual
Format profile : Advanced Simple@L5
Format settings, BVOP : 2
Format settings, QPel : No
Format settings, GMC : No warppoints
Format settings, Matrix : Custom
Codec ID : XVID
Codec ID/Hint : XviD
Duration : 4h 36mn
Bit rate : 1000 Kbps
Width : 656 pixels
Height : 512 pixels
Display aspect ratio : 1.281
Frame rate : 25.000 fps
Color space : YUV
Chroma subsampling : 4:2:0
Bit depth : 8 bits
Scan type : Progressive
Compression mode : Lossy
Bits/(Pixel*Frame) : 0.119
Stream size : 1.93 GiB (88%)
Writing library : XviD 64

Audio
ID : 1
Format : MPEG Audio
Format version : Version 1
Format profile : Layer 3
Codec ID : 55
Codec ID/Hint : MP3
Duration : 4h 36mn
Bit rate mode : Constant
Bit rate : 128 Kbps
Channel(s) : 2 channels
Sampling rate : 48.0 KHz
Compression mode : Lossy
Stream size : 253 MiB (11%)
Alignment : Split accross interleaves
Interleave, duration : 40 ms (1.00 video frame)
Interleave, preload duration : 500 ms
Writing library : L3.99r
Encoding settings : -m s -V 4 -q 2 -lowpass 17 -b 128

piratbit.pw



Скачать Каникулы Кроша через торрент http://pic1.kartinco.top/images/12/uo5hb.jpg Скачать фильм Каникулы Кроша через торрент бесплантно в хорошем качестве Описание: Сергей Крашенинников (Крош) перешел в десятый класс. Лето впереди было долгое. Но думал ли Крош, что станет героем настоящего ... 10 10 2
Торрент: Зарегистрирован [2019-01-04 20:51] · скачан: 12 раз
Статус: √ проверено
Размер: 2.2 GB
Как cкачать? Как скачать Каникулы Кроша через торрент | qTorrent

28-11-2019 20:33  

Отключить всю рекламу на сайте

    Дорогой пользователь! Огромная просьба, поблагодарите релизера, оцените раздачу и оставьте свои комментарий, если Вы скачали Каникулы Кроша через торрент бесплатно! Внесите свою лепту в развитие PiratBit!
    Комментировать посты могут только пользователи прошедшие не сложную регистрацию
    Показать сообщения:    

    Каникулы Кроша через торрент
    Скачать бесплатно Каникулы Кроша
    Каникулы Кроша скачать торрент
    Каникулы Кроша смотреть онлайн
    Cкачать фильм Каникулы Кроша бесплатно
    Каникулы Кроша скачать торрент в хорошем качестве
    Каникулы Кроша смотреть онлайн бесплатно в хорошем качестве


    Вы не можете начинать темы
    Вы не можете отвечать на сообщения
    Вы не можете редактировать свои сообщения
    Вы не можете удалять свои сообщения
    Вы не можете голосовать в опросах
    Вы не можете прикреплять файлы к сообщениям
    Вы можете скачивать файлы