Marvel's Avengers Deluxe Edition (супер цена) 159р. Внимание количество ограничено!!!

2 сезон

iTunes

iTunes

1

iTunes

iTunes

iTunes

WEBRip

iTunes

30
pack

Новость дня

ВАЖНО

!!Акция!!

Alien_RageХит недели

RePack

Horizon Zero Dawn

ИГРА 18+

pack

RePack

jed

!!Акция!!

Alien_Rage

RePack

fifa19

RePack

Assassins Creed: Odyssey

RePack

NEED FOR SPEED™ PAYBACK

4 сезон

9 сезон

Бесстыжие 9 сезон

Все сериалы

все сериалы на PB.wtf

RePack

FAR CRY 5
  

Каннибалы и установщики напольных покрытий / Cannibals and Carpet Fitters (Джеймс Буш) [2017 г., Ужасы, Комедия, HDRip, Любительский (двухголосый)HiWayGrope] piratbit.pw

Каннибалы и установщики напольных покрытий через торрент piratbit.pw

Размер: 1.36 GB | Добавлен: 1 год 8 мес. назад | Торрент скачан:219 раз
Скачать  

27-12-2018 22:50 Каннибалы и установщики напольных покрытий Скачать торрент  

Каннибалы и установщики напольных покрытий / Cannibals and Carpet Fitters
Год выпуска: 2017
Страна: Великобритания
Жанр: Ужасы, Комедия
Продолжительность: 01:22:40
Перевод: Любительский (двухголосый)HiWayGrope
Субтитры: Отсутствуют

Режиссер: Джеймс Буш

rating

В ролях: Даррен Шон Энрайт, Ричард Ли О’Доннелл, Зара Питиан, Кристофер Уайтло, Доминик Холмс, Джессика Джейн Клемент, Алекс Зейн, Фил Мартин, Мингус Джонстон, Ли Чарльз

Описание: Группа рабочих по установке напольных покрытий отправляется на выполнение заказа в отдалённый особняк. По прибытии ремонтники обнаруживают, что заказывали на самом деле не ковры, а их самих - в доме живёт семья каннибалов, и парни рискуют стать сегодняшним ужином. Но британских рабочих с инструментами так просто не возьмёшь, и желающим их съесть придётся очень сильно постараться.

Доп. информация: Рекламы нет

Качество: HDRip
Формат: AVI
Видео кодек: XviD
Аудио кодек: AC3
Видео: Xvid, 720x304, ~1772 Kbps
Аудио#1: АС3, 2 ch, 192 Kbps | русский
Аудио#2: AC3, 6 ch, 384 Kbps | английский
скриншот   скриншот   скриншот   скриншот  

бщее
Полное имя : D:\FILMЬl\Cannibals and Carpet Fitters.avi
Формат : AVI
Формат/Информация : Audio Video Interleave
Размер файла : 1,36 Гбайт
Продолжительность : 1 ч. 22 м.
Общий поток : 2362 Кбит/сек
Программа кодирования : VirtualDubMod 1.10.5ru (build 2550/release)
Библиотека кодирования : VirtualDubMod build 2550/release

Видео
Идентификатор : 0
Формат : MPEG-4 Visual
Профиль формата : Advanced Simple@L5
Настройки формата : BVOP2
Параметр BVOP формата : 2
Параметр QPel формата : Нет
Параметр GMC формата : Без точки перехода
Параметр матрицы формата : Default (H.263)
Режим смешивания : Сжатый битовый поток
Идентификатор кодека : XVID
Идентификатор кодека/Подсказка : XviD
Продолжительность : 1 ч. 22 м.
Битрейт : 1772 Кбит/сек
Ширина : 720 пикселей
Высота : 304 пикселя
Соотношение сторон : 2,35:1
Частота кадров : 23,976 (24000/1001) кадра/сек
Цветовое пространство : YUV
Субдискретизация насыщенности : 4:2:0
Битовая глубина : 8 бит
Тип развёртки : Прогрессивная
Метод сжатия : С потерями
Бит/(Пиксели*Кадры) : 0.338
Размер потока : 1,02 Гбайт (75%)
Библиотека кодирования : XviD 67

Аудио #1
Идентификатор : 1
Формат : AC-3
Формат/Информация : Audio Coding 3
Коммерческое название : Dolby Digital
Идентификатор кодека : 2000
Продолжительность : 1 ч. 22 м.
Вид битрейта : Постоянный
Битрейт : 192 Кбит/сек
Каналы : 2 канала
Channel layout : L R
Частота : 48,0 КГц
Частота кадров : 31,250 кадров/сек (1536 SPF)
Битовая глубина : 16 бит
Метод сжатия : С потерями
Размер потока : 114 Мбайт (8%)
Выравнивание : Разделение по промежуткам
Продолжительность промежутка : 42 мс. (1,00 видеокадр)
Время предзагрузки промежутка : 500 мс.
ServiceKind/String : Complete Main

Аудио #2
Идентификатор : 2
Формат : AC-3
Формат/Информация : Audio Coding 3
Коммерческое название : Dolby Digital
Идентификатор кодека : 2000
Продолжительность : 1 ч. 22 м.
Вид битрейта : Постоянный
Битрейт : 384 Кбит/сек
Каналы : 6 каналов
Channel layout : L R C LFE Ls Rs
Частота : 48,0 КГц
Частота кадров : 31,250 кадров/сек (1536 SPF)
Битовая глубина : 16 бит
Метод сжатия : С потерями
Размер потока : 227 Мбайт (16%)
Выравнивание : Соединение по промежуткам
Продолжительность промежутка : 42 мс. (1,00 видеокадр)
Время предзагрузки промежутка : 512 мс.
ServiceKind/String : Complete Main

piratbit.pw



Скачать Каннибалы и установщики напольных покрытий через торрент http://pic1.kartinco.top/images/12/wfhw2.jpg Скачать фильм Каннибалы и установщики напольных покрытий через торрент бесплантно в хорошем качестве Описание: Группа рабочих по установке напольных покрытий отправляется на выполнение заказа в отдалённый особняк. По прибытии ремонтники ... 7.6 10 10
Торрент: Зарегистрирован [2018-12-27 22:50] · скачан: 219 раз
Статус: T временная
Размер: 1.36 GB
Как cкачать? Как скачать Каннибалы и установщики напольных покрытий через торрент | qTorrent

% Раздел Тема Автор DL S | L
T Фильмы [HD 720p, 1080p] (Звук Cam, VO, DVO) [ 6.66 GB ] Каннибалы и установщики напольных покрытий / Cannibals and Carpet Fitters [2017 BDRip 1080p] DVO [HiWayGrope] bober100 Скачать
1 | 0

28-11-2019 20:33  

Отключить всю рекламу на сайте

    Дорогой пользователь! Огромная просьба, поблагодарите релизера, оцените раздачу и оставьте свои комментарий, если Вы скачали Каннибалы и установщики напольных покрытий через торрент бесплатно! Внесите свою лепту в развитие PiratBit!
    Комментировать посты могут только пользователи прошедшие не сложную регистрацию
    Показать сообщения:    

    Каннибалы и установщики напольных покрытий через торрент
    Скачать бесплатно Каннибалы и установщики напольных покрытий
    Каннибалы и установщики напольных покрытий скачать торрент
    Каннибалы и установщики напольных покрытий смотреть онлайн
    Cкачать фильм Каннибалы и установщики напольных покрытий бесплатно
    Каннибалы и установщики напольных покрытий скачать торрент в хорошем качестве
    Каннибалы и установщики напольных покрытий смотреть онлайн бесплатно в хорошем качестве


    Вы не можете начинать темы
    Вы не можете отвечать на сообщения
    Вы не можете редактировать свои сообщения
    Вы не можете удалять свои сообщения
    Вы не можете голосовать в опросах
    Вы не можете прикреплять файлы к сообщениям
    Вы можете скачивать файлы