Ссылка на приватное зеркало нашего сайта всего за 1$. Внимание количество ограничено!!!

2 сезон

iTunes

1 сезон

1

2 сезон

2 сезон

iTunes

1 сезон

RePack

30

Ultimate

ВАЖНО

ИГРА 18+

pack

RePack

MK11
pack

Забери бонус

RePack

jed

!!Акция!!

Alien_Rage

RePack

fifa19

RePack

Assassins Creed: Odyssey

RePack

NEED FOR SPEED™ PAYBACK

4 сезон

9 сезон

Бесстыжие 9 сезон

Все сериалы

все сериалы на PB.wtf

RePack

FAR CRY 5
  

Зелёный змий (Владимир Полковников) [1962, СССР, мультфильм, короткометражка, SATRip-AVC от AVP Studio] piratbit.pw

Зелёный змий через торрент piratbit.pw

Размер: 248 MB | Добавлен: 1 год 11 мес. назад | Торрент скачан:17 раз
Скачать  

27-12-2018 09:07 Зелёный змий Скачать торрент  

Зелёный змий
Страна: СССР
Производство: Союзмультфильм

Жанр: мультфильм, короткометражка
Год выпуска: 1962
Продолжительность: 00:15:19

Перевод: Не требуется
Cубтитры: нет
Оригинальная аудиодорожка: русский

Режиссер: Владимир Полковников

Роли озвучивали:
Татьяна Струкова, Анатолий Папанов, Григорий Шпигель...
Об актёрах подробней

Описание:
По лесу, через реку, по воздуху несется "москвич" с Ведьмой и Чертом. На колхозных полях машина опускается. Исчезает свекла в мешках Ведьмы. В лесной избушке колдует Ведьма над змеевиком, превращая его в Зеленого змия. И закапал изо рта Змия в бутылки самогон. Валится с моста машина пьяного шофера... Дерутся хулиганы, раскинулись под урнами пьяницы - на радость Черту и Ведьме, к которым стекаются деньги.

Исходник: DVB
Качество видео: SATRip-AVC
Формат видео: MKV

Видео: 704->760x570 (4:3), 25,000 кадров/сек, H264 ~ 2072 kbps avg, 0.207 bit/pixel
Аудио: 48 kHz, Dolby Digital AC3 2.0, 192 kbps

Раздача от:
Общее
Полное имя : Zelyonyy.zmiy.1962.SATRip-AVC_[New-team]_by_AVP_Studio.mkv
Формат : Matroska
Версия формата : Version 2
Размер файла : 248 Мбайт
Продолжительность : 15 м. 19 с.
Общий поток : 2265 Кбит/сек
Дата кодирования : UTC 2018-12-21 13:26:15
Программа кодирования : mkvmerge v6.1.0 ('Old Devil') built on Mar 4 2013 09:10:42
Библиотека кодирования : libebml v1.3.0 + libmatroska v1.4.0

Видео
Идентификатор : 1
Формат : AVC
Формат/Информация : Advanced Video Codec
Профиль формата : High@L4.1
Настройки формата : CABAC / 10 Ref Frames
Параметр CABAC формата : Да
Параметр RefFrames формата : 10 кадров
Идентификатор кодека : V_MPEG4/ISO/AVC
Продолжительность : 15 м. 19 с.
Битрейт : 2072 Кбит/сек
Ширина : 704 пикселя
Высота : 570 пикселей
Соотношение сторон : 4:3
Режим частоты кадров : Постоянный
Частота кадров : 25,000 кадров/сек
Цветовое пространство : YUV
Субдискретизация насыщенности : 4:2:0
Битовая глубина : 8 бит
Тип развёртки : Прогрессивная
Бит/(Пиксели*Кадры) : 0.207
Размер потока : 222 Мбайт (90%)
Библиотека кодирования : x264 core 157 r2932 303c484
Настройки программы : cabac=1 / ref=10 / deblock=1:-2:-1 / analyse=0x3:0x113 / me=umh / subme=10 / psy=1 / psy_rd=1.00:0.00 / mixed_ref=1 / me_range=32 / chroma_me=1 / trellis=2 / 8x8dct=1 / cqm=0 / deadzone=21,11 / fast_pskip=1 / chroma_qp_offset=-2 / threads=6 / lookahead_threads=1 / sliced_threads=0 / nr=0 / decimate=0 / interlaced=0 / bluray_compat=0 / constrained_intra=0 / bframes=8 / b_pyramid=2 / b_adapt=2 / b_bias=0 / direct=3 / weightb=1 / open_gop=0 / weightp=2 / keyint=250 / keyint_min=25 / scenecut=40 / intra_refresh=0 / rc=2pass / mbtree=0 / bitrate=2072 / ratetol=1.0 / qcomp=0.60 / qpmin=0 / qpmax=69 / qpstep=4 / cplxblur=20.0 / qblur=0.5 / ip_ratio=1.40 / pb_ratio=1.30 / aq=1:1.00
Default : Да
Forced : Нет

Аудио
Идентификатор : 2
Формат : AC-3
Формат/Информация : Audio Coding 3
Коммерческое название : Dolby Digital
Идентификатор кодека : A_AC3
Продолжительность : 15 м. 19 с.
Вид битрейта : Постоянный
Битрейт : 192 Кбит/сек
Каналы : 2 канала
Channel layout : L R
Частота : 48,0 КГц
Частота кадров : 31,250 кадров/сек (1536 SPF)
Битовая глубина : 16 бит
Метод сжатия : С потерями
Размер потока : 21,0 Мбайт (8%)
Default : Да
Forced : Нет
piratbit.pw



Скачать Зелёный змий через торрент http://picplus.ru/img/1812/27/0c56e21d.png Скачать фильм Зелёный змий через торрент бесплантно в хорошем качестве Описание:По лесу, через реку, по воздуху несется "москвич" с Ведьмой и Чертом. На колхозных полях машина опускается. Исчезает свекла в ... 10 10 1
Торрент: Зарегистрирован [2018-12-27 09:07] · скачан: 17 раз
Статус: √ проверено
Размер: 248 MB
Как cкачать? Как скачать Зелёный змий через торрент | qTorrent

% Раздел Тема Автор DL S | L
Короткометражные мультфильмы [ 248 MB ] Зелёный змий [1962 СССР мультфильм короткометражка SATRip от AVP Studio] AVP Studio Скачать
1 | 0
Документальные фильмы и телепередачи [ 731 MB ] Зеленый змий. Тысячелетняя война [2015 документальный история исследование SATRip ] bober100 Скачать
1 | 0

28-11-2019 20:33  

Отключить всю рекламу на сайте

    Дорогой пользователь! Огромная просьба, поблагодарите релизера, оцените раздачу и оставьте свои комментарий, если Вы скачали Зелёный змий через торрент бесплатно! Внесите свою лепту в развитие PiratBit!
    Комментировать посты могут только пользователи прошедшие не сложную регистрацию
    Показать сообщения:    

    Зелёный змий через торрент
    Скачать бесплатно Зелёный змий
    Зелёный змий скачать торрент
    Зелёный змий смотреть онлайн
    Cкачать фильм Зелёный змий бесплатно
    Зелёный змий скачать торрент в хорошем качестве
    Зелёный змий смотреть онлайн бесплатно в хорошем качестве


    Вы не можете начинать темы
    Вы не можете отвечать на сообщения
    Вы не можете редактировать свои сообщения
    Вы не можете удалять свои сообщения
    Вы не можете голосовать в опросах
    Вы не можете прикреплять файлы к сообщениям
    Вы можете скачивать файлы