Ссылка на приватное зеркало нашего сайта всего за 1$. Внимание количество ограничено!!!

2 сезон

iTunes

1 сезон

1

2 сезон

2 сезон

iTunes

1 сезон

RePack

30

Новинка

ВАЖНО

ИГРА 18+

pack

RePack

MK11
pack

Забери бонус

RePack

jed

!!Акция!!

Alien_Rage

RePack

fifa19

RePack

Assassins Creed: Odyssey

RePack

NEED FOR SPEED™ PAYBACK

4 сезон

9 сезон

Бесстыжие 9 сезон

Все сериалы

все сериалы на PB.wtf

RePack

FAR CRY 5
  

Зелёный змий (Владимир Полковников) [1962, СССР, мультфильм, короткометражка, SATRip от AVP Studio] piratbit.pw

Зелёный змий через торрент piratbit.pw

Размер: 248 MB | Добавлен: 1 год 10 мес. назад | Торрент скачан:25 раз
Скачать  

27-12-2018 09:05 Зелёный змий Скачать торрент  

Зелёный змий
Страна: СССР
Производство: Союзмультфильм

Жанр: мультфильм, короткометражка
Год выпуска: 1962
Продолжительность: 00:15:19

Перевод: Не требуется
Cубтитры: нет
Оригинальная аудиодорожка: русский

Режиссер: Владимир Полковников

Роли озвучивали:
Татьяна Струкова, Анатолий Папанов, Григорий Шпигель...
Об актёрах подробней

Описание:
По лесу, через реку, по воздуху несется "москвич" с Ведьмой и Чертом. На колхозных полях машина опускается. Исчезает свекла в мешках Ведьмы. В лесной избушке колдует Ведьма над змеевиком, превращая его в Зеленого змия. И закапал изо рта Змия в бутылки самогон. Валится с моста машина пьяного шофера... Дерутся хулиганы, раскинулись под урнами пьяницы - на радость Черту и Ведьме, к которым стекаются деньги.

Исходник: DVB
Качество видео: SATRip
Формат видео: AVI

Видео: 704x528 (4:3), 25,000 кадров/сек, XviD ~ 2066 kbps avg, 0.222 bit/pixel
Аудио: 48 kHz, Dolby Digital AC3 2.0, 192 kbps

Раздача от:
Общее
Полное имя : Zelyonyy.zmiy.1962.SATRip_[New-team]_by_AVP_Studio.avi
Формат : AVI
Формат/Информация : Audio Video Interleave
Размер файла : 248 Мбайт
Продолжительность : 15 м. 19 с.
Общий поток : 2268 Кбит/сек
Программа кодирования : VirtualDubMod 1.5.10.3 | www.virtualdub-fr.org || (build 2550/release)
Библиотека кодирования : VirtualDubMod build 2550/release

Видео
Идентификатор : 0
Формат : MPEG-4 Visual
Профиль формата : Advanced Simple@L5
Настройки формата : BVOP1 / Custom Matrix
Параметр BVOP формата : 1
Параметр QPel формата : Нет
Параметр GMC формата : Без точки перехода
Параметр матрицы формата : Выборочная
Идентификатор кодека : XVID
Идентификатор кодека/Подсказка : XviD
Продолжительность : 15 м. 19 с.
Битрейт : 2066 Кбит/сек
Ширина : 704 пикселя
Высота : 528 пикселей
Соотношение сторон : 4:3
Частота кадров : 25,000 кадров/сек
Цветовое пространство : YUV
Субдискретизация насыщенности : 4:2:0
Битовая глубина : 8 бит
Тип развёртки : Прогрессивная
Метод сжатия : С потерями
Бит/(Пиксели*Кадры) : 0.222
Размер потока : 226 Мбайт (91%)
Библиотека кодирования : XviD 73

Аудио
Идентификатор : 1
Формат : AC-3
Формат/Информация : Audio Coding 3
Коммерческое название : Dolby Digital
Идентификатор кодека : 2000
Продолжительность : 15 м. 19 с.
Вид битрейта : Постоянный
Битрейт : 192 Кбит/сек
Каналы : 2 канала
Channel layout : L R
Частота : 48,0 КГц
Частота кадров : 31,250 кадров/сек (1536 SPF)
Битовая глубина : 16 бит
Метод сжатия : С потерями
Размер потока : 21,0 Мбайт (8%)
Выравнивание : Разделение по промежуткам
Продолжительность промежутка : 40 мс. (1,00 видеокадр)
Время предзагрузки промежутка : 500 мс
piratbit.pw



Скачать Зелёный змий через торрент http://picplus.ru/img/1812/27/0c56e21d.png Скачать фильм Зелёный змий через торрент бесплантно в хорошем качестве Описание:По лесу, через реку, по воздуху несется "москвич" с Ведьмой и Чертом. На колхозных полях машина опускается. Исчезает свекла в ... 5 10 1
Торрент: Зарегистрирован [2018-12-27 09:05] · скачан: 25 раз
Статус: √ проверено
Размер: 248 MB
Как cкачать? Как скачать Зелёный змий через торрент | qTorrent

% Раздел Тема Автор DL S | L
Короткометражные мультфильмы [ 248 MB ] Зелёный змий [1962 СССР мультфильм короткометражка SATRip-AVC от AVP Studio] AVP Studio Скачать
1 | 0
Документальные фильмы и телепередачи [ 731 MB ] Зеленый змий. Тысячелетняя война [2015 документальный история исследование SATRip ] bober100 Скачать
1 | 0

28-11-2019 20:33  

Отключить всю рекламу на сайте

    Дорогой пользователь! Огромная просьба, поблагодарите релизера, оцените раздачу и оставьте свои комментарий, если Вы скачали Зелёный змий через торрент бесплатно! Внесите свою лепту в развитие PiratBit!
    Комментировать посты могут только пользователи прошедшие не сложную регистрацию
    Показать сообщения:    

    Зелёный змий через торрент
    Скачать бесплатно Зелёный змий
    Зелёный змий скачать торрент
    Зелёный змий смотреть онлайн
    Cкачать фильм Зелёный змий бесплатно
    Зелёный змий скачать торрент в хорошем качестве
    Зелёный змий смотреть онлайн бесплатно в хорошем качестве


    Вы не можете начинать темы
    Вы не можете отвечать на сообщения
    Вы не можете редактировать свои сообщения
    Вы не можете удалять свои сообщения
    Вы не можете голосовать в опросах
    Вы не можете прикреплять файлы к сообщениям
    Вы можете скачивать файлы