Marvel's Avengers Deluxe Edition (супер цена) 159р. Внимание количество ограничено!!!

2 сезон

iTunes

iTunes

1

iTunes

iTunes

iTunes

WEBRip

iTunes

30
pack

Новость дня

ВАЖНО

!!Акция!!

Alien_RageХит недели

RePack

Horizon Zero Dawn

ИГРА 18+

pack

RePack

jed

!!Акция!!

Alien_Rage

RePack

fifa19

RePack

Assassins Creed: Odyssey

RePack

NEED FOR SPEED™ PAYBACK

4 сезон

9 сезон

Бесстыжие 9 сезон

Все сериалы

все сериалы на PB.wtf

RePack

FAR CRY 5
  

Год свиньи (Семён Яковлев) [2018, Комедия, WEB-DL 720p] piratbit.pw

Год свиньи через торрент piratbit.pw

Размер: 1.39 GB | Добавлен: 1 год 8 мес. назад | Торрент скачан:487 раз
Скачать  

27-12-2018 04:46 Год свиньи Скачать торрент  

Год свиньиГод выпуска: 2018
Страна: Россия
Жанр: Комедия
Продолжительность: 01:11:10
Субтитры: отсутствуют

Режиссер: Семён Яковлев



В ролях:

Максим Костромыкин, Юлия Александрова, Алина Алексеева, Александр Яценко, Борис Дергачев, Роза Хайруллина, Дарья Руденок, Сергей Стёпин, Юрий Ицков

Описание:

Три новеллы, сюжетные линии которых переплетаются в самый последний и самый безумный день в году — 31 декабря. Молодой интерн впервые едет на дежурство в машине скорой помощи, но о реальной помощи пострадавшим в этот Новый год придется забыть. Тихий праздник одинокой кассирши оказывается под угрозой из-за внезапно упавшей с полки бутылки. Брат хочет признаться своему близнецу в измене с его женой, но все идет под откос из-за испорченной гирлянды…

Качество: WEB-DL 720p
Формат: MKV

Видео: MPEG-4 AVC, ~ 2600 Кбит/с, 1280x720
Аудио: AC3, 2 ch, 192 Кбит/с
скриншот  скриншот  скриншот  скриншот  

Общее
Уникальный идентификатор : 193289997334607438746796959672908164457 (0x916A4CA447DDAAF297FF9036FA28AD69)
Полное имя : E:\God.svinji.2018.WEB-DL.720p.ExKinoRa.mkv
Формат : Matroska
Версия формата : Version 2
Размер файла : 1,39 Гбайт
Продолжительность : 1 ч. 11 м.
Режим общего битрейта : Постоянный
Общий поток : 2789 Кбит/сек
Дата кодирования : UTC 2018-12-26 22:28:27
Программа кодирования : mkvmerge v5.8.0 ('No Sleep / Pillow') built on Sep 2 2012 15:37:04
Библиотека кодирования : libebml v1.2.3 + libmatroska v1.3.0

Видео
Идентификатор : 1
Формат : AVC
Формат/Информация : Advanced Video Codec
Профиль формата : Baseline@L4
Настройки формата : 4 Ref Frames
Параметр CABAC формата : Нет
Параметр RefFrames формата : 4 кадра
Идентификатор кодека : V_MPEG4/ISO/AVC
Продолжительность : 1 ч. 11 м.
Вид битрейта : Постоянный
Битрейт : 2600 Кбит/сек
Ширина : 1280 пикселей
Высота : 720 пикселей
Соотношение сторон : 16:9
Режим частоты кадров : Постоянный
Частота кадров : 25,000 кадров/сек
Стандарт вещания : PAL
Цветовое пространство : YUV
Субдискретизация насыщенности : 4:2:0
Битовая глубина : 8 бит
Тип развёртки : Прогрессивная
Бит/(Пиксели*Кадры) : 0.113
Размер потока : 1,26 Гбайт (91%)
Язык : Russian
Default : Да
Forced : Нет
Цветовой диапазон : Limited
Основные цвета : BT.709
Характеристики трансфера : BT.709
Коэффициенты матрицы : BT.709

Аудио
Идентификатор : 2
Формат : AC-3
Формат/Информация : Audio Coding 3
Идентификатор кодека : A_AC3
Продолжительность : 1 ч. 11 м.
Вид битрейта : Постоянный
Битрейт : 192 Кбит/сек
Каналы : 2 канала
Расположение каналов : Front: L R
Частота : 48,0 КГц
Частота кадров : 31,250 кадров/сек (1536 SPF)
Битовая глубина : 16 бит
Метод сжатия : С потерями
Размер потока : 97,7 Мбайт (7%)
Язык : Russian
ServiceKind/String : Complete Main
Default : Да
Forced : Нет

piratbit.pw



Скачать Год свиньи через торрент http://img15.lostpic.net/2018/12/27/72f6b9b8d026ba0f07b78c85b13fd260.jpg Скачать фильм Год свиньи через торрент бесплантно в хорошем качестве Описание: Три новеллы, сюжетные линии которых переплетаются в самый последний и самый безумный день в году — 31 декабря. Молодой интерн ... 9.2 10 11
Info! Золотая раздача, скачанное не засчитывается.
Торрент: Зарегистрирован [2018-12-27 04:46] · скачан: 487 раз
Статус: √ проверено
Размер: 1.39 GB
Как cкачать? Как скачать Год свиньи через торрент | qTorrent

% Раздел Тема Автор DL S | L
Наши фильмы (HD, WEB-DL 720p, 1080p) [ 2.58 GB ] Год свиньи [2018 WEB-DL 1080p Оригинальный] Яйцеслав Скачать
2 | 0
Наши новые фильмы 2018-2019 [ 1.02 GB ] Год свиньи [2018 WEB-DLRip] bober100 Скачать
5 | 0
Наши новые фильмы 2018-2019 [ 1.37 GB ] Год свиньи [2018 WEBRip-AVC] bober100 Скачать
1 | 0

28-11-2019 20:33  

Отключить всю рекламу на сайте

    Дорогой пользователь! Огромная просьба, поблагодарите релизера, оцените раздачу и оставьте свои комментарий, если Вы скачали Год свиньи через торрент бесплатно! Внесите свою лепту в развитие PiratBit!
    Комментировать посты могут только пользователи прошедшие не сложную регистрацию
    Показать сообщения:    

    Год свиньи через торрент
    Скачать бесплатно Год свиньи
    Год свиньи скачать торрент
    Год свиньи смотреть онлайн
    Cкачать фильм Год свиньи бесплатно
    Год свиньи скачать торрент в хорошем качестве
    Год свиньи смотреть онлайн бесплатно в хорошем качестве


    Вы не можете начинать темы
    Вы не можете отвечать на сообщения
    Вы не можете редактировать свои сообщения
    Вы не можете удалять свои сообщения
    Вы не можете голосовать в опросах
    Вы не можете прикреплять файлы к сообщениям
    Вы можете скачивать файлы