Marvel's Avengers Deluxe Edition (супер цена) 159р. Внимание количество ограничено!!!

2 сезон

iTunes

iTunes

1

iTunes

iTunes

iTunes

WEBRip

iTunes

30
pack

Новость дня

ВАЖНО

!!Акция!!

Alien_RageХит недели

RePack

Horizon Zero Dawn

ИГРА 18+

pack

RePack

jed

!!Акция!!

Alien_Rage

RePack

fifa19

RePack

Assassins Creed: Odyssey

RePack

NEED FOR SPEED™ PAYBACK

4 сезон

9 сезон

Бесстыжие 9 сезон

Все сериалы

все сериалы на PB.wtf

RePack

FAR CRY 5
  

Год свиньи (Семен Яковлев) [2018 г., Комедия, WEB-DL 1080p, Оригинальный] piratbit.pw

Год свиньи через торрент piratbit.pw

Размер: 2.58 GB | Добавлен: 1 год 8 мес. назад | Торрент скачан:1645 раз
Скачать  

27-12-2018 03:15 Год свиньи Скачать торрент  

Год свиньи
Год выпуска: 2018
Страна: Россия
Жанр: Комедия
Продолжительность: 01:11:10
Перевод: Оригинальный
Режиссер: Семен Яковлев
Премьера в мире: 27 декабря 2018


Семпл
В ролях: Алина Алексеева, Борис Дергачев, Александр Яценко, Юлия Александрова, Максим Костромыкин, Дарья Руденок, Алёна Савастова, Роза Хайруллина, Юрий Ицков, Сергей Стёпин
Описание: Три новеллы, сюжетные линии которых переплетаются в самый последний и самый безумный день в году — 31 декабря. Молодой интерн впервые едет на дежурство в машине скорой помощи, но о реальной помощи пострадавшим в этот Новый год придется забыть. Тихий праздник одинокой кассирши оказывается под угрозой из-за внезапно упавшей с полки бутылки. Брат хочет признаться своему близнецу в измене с его женой, но все идет под откос из-за испорченной гирлянды…
Качество: WEB-DL 1080p
Формат: MKV
Видео кодек: MPEG4
Аудио кодек: AC3
Видео: MPEG-4 AVC, ~ 5000 Кбит/с, 1920x1080 , Frame rate : 25.000 FPS
Аудио#1: AC3, 2 ch, 192 Кбит/с , 48.0 kHz

скриншот   скриншот   скриншот  
General
Unique ID : 176612406239279464366729429735103548169 (0x84DE4FEA8BFF5AA990A500381B6C4B09)
Complete name : D:\God.svini.2018.WEB-DL.(1080p).Getty.mkv
Format : Matroska
Format version : Version 4
File size : 2.58 GiB
Duration : 1 h 11 min
Overall bit rate mode : Constant
Overall bit rate : 5 187 kb/s
Movie name : God.svini.2018.WEB-DL.(1080p).Getty
Encoded date : UTC 2018-12-26 22:01:35
Writing application : mkvmerge v7.8.0 ('River Man') 32bit built on Mar 27 2015 16:18:02
Writing library : libebml v1.3.1 + libmatroska v1.4.2

Video
ID : 1
Format : AVC
Format/Info : Advanced Video Codec
Format profile : Baseline@L4
Format settings : 4 Ref Frames
Format settings, CABAC : No
Format settings, ReFrames : 4 frames
Codec ID : V_MPEG4/ISO/AVC
Duration : 1 h 11 min
Bit rate mode : Constant
Bit rate : 5 000 kb/s
Width : 1 920 pixels
Height : 1 080 pixels
Display aspect ratio : 16:9
Frame rate mode : Constant
Frame rate : 25.000 FPS
Standard : PAL
Color space : YUV
Chroma subsampling : 4:2:0
Bit depth : 8 bits
Scan type : Progressive
Bits/(Pixel*Frame) : 0.096
Stream size : 2.48 GiB (96%)
Default : Yes
Forced : No
Color range : Limited
Color primaries : BT.709
Transfer characteristics : BT.709
Matrix coefficients : BT.709

Audio
ID : 2
Format : AC-3
Format/Info : Audio Coding 3
Commercial name : Dolby Digital
Codec ID : A_AC3
Duration : 1 h 11 min
Bit rate mode : Constant
Bit rate : 192 kb/s
Channel(s) : 2 channels
Channel layout : L R
Sampling rate : 48.0 kHz
Frame rate : 31.250 FPS (1536 SPF)
Bit depth : 16 bits
Compression mode : Lossy
Stream size : 97.7 MiB (4%)
Service kind : Complete Main
Default : Yes
Forced : No
piratbit.pw



Скачать Год свиньи через торрент http://pic1.kartinco.top/images/12/blt83.jpg Скачать фильм Год свиньи через торрент бесплантно в хорошем качестве Описание: Три новеллы, сюжетные линии которых переплетаются в самый последний и самый безумный день в году — 31 декабря. Молодой интерн ... 9.3 10 36
Info! Золотая раздача, скачанное не засчитывается.
Торрент: Зарегистрирован [2018-12-27 03:15] · скачан: 1 645 раз
Статус: √ проверено
Размер: 2.58 GB
Как cкачать? Как скачать Год свиньи через торрент | qTorrent

% Раздел Тема Автор DL S | L
Наши новые фильмы 2018-2019 [ 1.02 GB ] Год свиньи [2018 WEB-DLRip] bober100 Скачать
2 | 0
Наши новые фильмы 2018-2019 [ 1.37 GB ] Год свиньи [2018 WEBRip-AVC] bober100 Скачать
1 | 0
Наши фильмы (HD, WEB-DL 720p, 1080p) [ 1.39 GB ] Год свиньи [2018 WEB-DL 720p] bober100 Скачать
1 | 0


Последний раз редактировалось: Яйцеслав (2018-12-27 03:40), всего редактировалось 5 раз(а)

28-11-2019 20:33  

Отключить всю рекламу на сайте

27-12-2018 04:03 Год свиньи Скачать торрент  

Топик был перенесен из форума Оформление раздач (Кино, Видео и ТВ) в форум Наши фильмы (HD, WEB-DL 720p, 1080p)


bober100piratbit.pw



03-01-2019 05:05 Год свиньи Скачать торрент  

Эпичная херь piratbit.pw



08-01-2019 09:07 Год свиньи Скачать торрент  

Не досмотрел. Г.... редкостноеpiratbit.pw



18-02-2019 16:37 Год свиньи Скачать торрент  

Классная комедия!!! Можно поржать! Половина актеров из сериалов тнтpiratbit.pw



    Дорогой пользователь! Огромная просьба, поблагодарите релизера, оцените раздачу и оставьте свои комментарий, если Вы скачали Год свиньи через торрент бесплатно! Внесите свою лепту в развитие PiratBit!
    Комментировать посты могут только пользователи прошедшие не сложную регистрацию
    Показать сообщения:    

    Год свиньи через торрент
    Скачать бесплатно Год свиньи
    Год свиньи скачать торрент
    Год свиньи смотреть онлайн
    Cкачать фильм Год свиньи бесплатно
    Год свиньи скачать торрент в хорошем качестве
    Год свиньи смотреть онлайн бесплатно в хорошем качестве


    Вы не можете начинать темы
    Вы не можете отвечать на сообщения
    Вы не можете редактировать свои сообщения
    Вы не можете удалять свои сообщения
    Вы не можете голосовать в опросах
    Вы не можете прикреплять файлы к сообщениям
    Вы можете скачивать файлы