Marvel's Avengers Deluxe Edition (супер цена) 159р. Внимание количество ограничено!!!

2 сезон

iTunes

iTunes

1

iTunes

iTunes

iTunes

WEBRip

iTunes

30
pack

Новость дня

ВАЖНО

!!Акция!!

Alien_RageХит недели

RePack

Horizon Zero Dawn

ИГРА 18+

pack

RePack

jed

!!Акция!!

Alien_Rage

RePack

fifa19

RePack

Assassins Creed: Odyssey

RePack

NEED FOR SPEED™ PAYBACK

4 сезон

9 сезон

Бесстыжие 9 сезон

Все сериалы

все сериалы на PB.wtf

RePack

FAR CRY 5
  

Ваш репетитор (Антон Коломеец) [2018, драма, WEB-DL 1080p] [iTunes] piratbit.pw

Ваш репетитор через торрент piratbit.pw

Размер: 3 GB | Добавлен: 1 год 8 мес. назад | Торрент скачан:70 раз
Скачать  

20-12-2018 06:38 Ваш репетитор Скачать торрент  

Ваш репетитор
Год выпуска: 2018
Страна: Россия
Жанр: драма
Продолжительность: 01:24:49
Перевод: Не требуется (оригинал) | iTunes
Субтитры: отсутствуют

Режиссер: Антон Коломеец



В ролях:

Наталия Вдовина, Алексей Сергеев, Владислав Коноплёв, Максим Битюков, Анастасия Куимова

Описание:

История взросления молодого человека. Первая любовь, первое предательство, первые разочарования...

Качество: WEB-DL 1080p
Формат: MKV

Видео: 1920x806 (2.40:1), 25.000 fps, MPEG-4 AVC ~4 545 kbps avg
Аудио#1: 48.0 kHz, AC3 Dolby Digital, 3/2 (L,C,R,l,r) + LFE ch, ~384 kbps | RUS
Аудио#2: 48.0 kHz, Advanced Audio Codec Low Complexity, 2/0 (L,R) ch, ~124 kbps | RUS
скриншот  скриншот  скриншот  

General
Уникальный идентификатор : 21229829978022976940421463003205950201 (0xFF8B76E4E71AD169CFF25571B3F5AF9)
Полное имя : Ваш.репетитор.2018.WEBDL.1080p.iTunes.RUS-ylnian.mkv
Формат : Matroska
Версия формата : Version 4
Размер файла : 3,00 Гбайт
Продолжительность : 1 ч. 24 м.
Общий поток : 5056 Кбит/сек
Название фильма : Ваш.репетитор.2018.WEBDL.1080p.iTunes.RUS-ylnian
Дата кодирования : UTC 2018-12-20 05:20:09
Программа кодирования : mkvmerge v29.0.0 ('Like It Or Not') 64-bit
Библиотека кодирования : libebml v1.3.6 + libmatroska v1.4.9

Видео
Идентификатор : 1
Формат : AVC
Формат/Информация : Advanced Video Codec
Профиль формата : High@L4
Настройки формата : CABAC / 5 Ref Frames
Параметр CABAC формата : Да
Параметр RefFrames формата : 5 кадров
Идентификатор кодека : V_MPEG4/ISO/AVC
Продолжительность : 1 ч. 24 м.
Битрейт : 4545 Кбит/сек
Ширина : 1920 пикселей
Высота : 806 пикселей
Соотношение сторон : 2,40:1
Режим частоты кадров : Постоянный
Частота кадров : 25,000 кадров/сек
Цветовое пространство : YUV
Субдискретизация насыщенности : 4:2:0
Битовая глубина : 8 бит
Тип развёртки : Прогрессивная
Бит/(Пиксели*Кадры) : 0.117
Размер потока : 2,69 Гбайт (90%)
Заголовок : Ваш.репетитор.2018.WEBDL.1080p.iTunes.RUS-ylnian
Язык : Russian
Default : Да
Forced : Да
Цветовой диапазон : Limited
Основные цвета : BT.709
Характеристики трансфера : BT.709
Коэффициенты матрицы : BT.709

Аудио #1
Идентификатор : 2
Формат : AC-3
Формат/Информация : Audio Coding 3
Коммерческое название : Dolby Digital
Идентификатор кодека : A_AC3
Продолжительность : 1 ч. 24 м.
Вид битрейта : Постоянный
Битрейт : 384 Кбит/сек
Каналы : 6 каналов
Channel layout : L R C LFE Ls Rs
Частота : 48,0 КГц
Частота кадров : 31,250 кадров/сек (1536 SPF)
Битовая глубина : 16 бит
Метод сжатия : С потерями
Размер потока : 233 Мбайт (8%)
Язык : Russian
Default : Да
Forced : Да

Аудио #2
Идентификатор : 3
Формат : AAC LC
Формат/Информация : Advanced Audio Codec Low Complexity
Идентификатор кодека : A_AAC-2
Продолжительность : 1 ч. 24 м.
Битрейт : 124 Кбит/сек
Каналы : 2 канала
Channel layout : L R
Частота : 48,0 КГц
Частота кадров : 46,875 кадров/сек (1024 SPF)
Метод сжатия : С потерями
Размер потока : 75,4 Мбайт (2%)
Язык : Russian
Default : Нет
Forced : Нет

Меню
00:00:00.000 : ru:1
00:08:14.040 : ru:2
00:17:02.640 : ru:3
00:25:28.520 : ru:4
00:33:53.200 : ru:5
00:42:27.680 : ru:6
00:50:56.160 : ru:7
00:59:39.400 : ru:8
01:08:36.480 : ru:9
01:14:48.000 : ru:10

piratbit.pw



Скачать Ваш репетитор через торрент http://img14.lostpic.net/2018/12/20/3b186dde67d5984417795aa4c3940821.png Скачать фильм Ваш репетитор через торрент бесплантно в хорошем качестве Описание: История взросления молодого человека. Первая любовь, первое предательство, первые ... 10 10 5
Торрент: Зарегистрирован [2018-12-20 06:38] · скачан: 70 раз
Статус: √ проверено
Размер: 3 GB
Как cкачать? Как скачать Ваш репетитор через торрент | qTorrent

% Раздел Тема Автор DL S | L
Наши новые фильмы 2018-2019 [ 1.45 GB ] Ваш репетитор [2018 WEB-DLRip] bober100 Скачать
1 | 0

28-11-2019 20:33  

Отключить всю рекламу на сайте

    Дорогой пользователь! Огромная просьба, поблагодарите релизера, оцените раздачу и оставьте свои комментарий, если Вы скачали Ваш репетитор через торрент бесплатно! Внесите свою лепту в развитие PiratBit!
    Комментировать посты могут только пользователи прошедшие не сложную регистрацию
    Показать сообщения:    

    Ваш репетитор через торрент
    Скачать бесплатно Ваш репетитор
    Ваш репетитор скачать торрент
    Ваш репетитор смотреть онлайн
    Cкачать фильм Ваш репетитор бесплатно
    Ваш репетитор скачать торрент в хорошем качестве
    Ваш репетитор смотреть онлайн бесплатно в хорошем качестве


    Вы не можете начинать темы
    Вы не можете отвечать на сообщения
    Вы не можете редактировать свои сообщения
    Вы не можете удалять свои сообщения
    Вы не можете голосовать в опросах
    Вы не можете прикреплять файлы к сообщениям
    Вы можете скачивать файлы