Ссылка на приватное зеркало нашего сайта всего за 1$. Внимание количество ограничено!!!

2 сезон

iTunes

iTunes

1

iTunes

iTunes

iTunes

WEBRip

iTunes

30
pack

Вам бонус

ВАЖНО

!!Акция!!

Alien_RageХит недели

RePack

Horizon Zero Dawn

ИГРА 18+

pack

RePack

jed

!!Акция!!

Alien_Rage

RePack

fifa19

RePack

Assassins Creed: Odyssey

RePack

NEED FOR SPEED™ PAYBACK

4 сезон

9 сезон

Бесстыжие 9 сезон

Все сериалы

все сериалы на PB.wtf

RePack

FAR CRY 5
  

Хармс (Иван Болотников) [2017, драма, биография, WEB-DL 1080p] [iTunes] piratbit.pw

Хармс через торрент piratbit.pw

Размер: 3.8 GB | Добавлен: 1 год 9 мес. назад | Торрент скачан:39 раз
Скачать  

20-12-2018 06:09 Хармс Скачать торрент  

Хармс
Год выпуска: 2017
Страна: Россия
Жанр: драма, биография
Продолжительность: 01:35:36
Перевод: Не требуется (оригинал) | iTunes
Субтитры: английские

Режиссер: Иван Болотников

rating

В ролях:

Войтек Урбаньски, Айсте Диржюте, Дариус Гумаускас, Артем Семакин, Андрей Феськов, Александр Баширов, Никита Кукушкин

Описание:

Он сам считает себя гением, но издательства отказываются печатать его произведения. Он любит женщин, но те не всегда его понимают. Постоянное отсутствие денег и отстраненность от реальности. Элегантный пижон Даниил Ювачев называет себя не менее эффектно — Хармс. Он завсегдатай беспрерывных литературных тусовок и любитель эпатажа. Живя в обществе, он совершенно от него оторван. Хармс бросает вызов времени, смело кидается в пучину действительности, размытой и вполне условной, с той же долей противоречий, какой была исполнена его натура.

В атмосфере его ветхой квартиры и редакции детских журналов «Чиж» и «Ёж», ленинградских улиц, набережных и крыш разворачивается удивительная битва человека с самим собой, своими пороками, страстями, с целым миром, в котором он существует, будто запертый в клетку. Справится ли он с давлением общества, любовными коллизиями, невозможностью заниматься творчеством..?

Качество: WEB-DL 1080p
Формат: MKV

Видео: 1920x1038 (1.85:1), 24.000 fps, MPEG-4 AVC ~5 172 kbps avg
Аудио#1: 48.0 kHz, AC3 Dolby Digital, 3/2 (L,C,R,l,r) + LFE ch, ~384 kbps | RUS
Аудио#2: 48.0 kHz, Advanced Audio Codec Low Complexity, 2/0 (L,R) ch, ~126 kbps | RUS
скриншот  скриншот  скриншот  

General
Уникальный идентификатор : 158982020737823384473385380785083388457 (0x779AD2CCB08EE55FB4A75A57F4EC1229)
Полное имя : Хармс.2017.WEBDL.1080p.iTunes.RUS-ylnian.mkv
Формат : Matroska
Версия формата : Version 4
Размер файла : 3,80 Гбайт
Продолжительность : 1 ч. 35 м.
Общий поток : 5684 Кбит/сек
Название фильма : Хармс.2017.WEBDL.1080p.iTunes.RUS-ylnian
Дата кодирования : UTC 2018-12-20 03:57:41
Программа кодирования : mkvmerge v29.0.0 ('Like It Or Not') 64-bit
Библиотека кодирования : libebml v1.3.6 + libmatroska v1.4.9

Видео
Идентификатор : 1
Формат : AVC
Формат/Информация : Advanced Video Codec
Профиль формата : High@L4
Настройки формата : CABAC / 4 Ref Frames
Параметр CABAC формата : Да
Параметр RefFrames формата : 4 кадра
Идентификатор кодека : V_MPEG4/ISO/AVC
Продолжительность : 1 ч. 35 м.
Битрейт : 5172 Кбит/сек
Ширина : 1920 пикселей
Высота : 1038 пикселей
Соотношение сторон : 1,85:1
Режим частоты кадров : Постоянный
Частота кадров : 24,000 кадра/сек
Цветовое пространство : YUV
Субдискретизация насыщенности : 4:2:0
Битовая глубина : 8 бит
Тип развёртки : Прогрессивная
Бит/(Пиксели*Кадры) : 0.108
Размер потока : 3,45 Гбайт (91%)
Заголовок : Хармс.2017.WEBDL.1080p.iTunes.RUS-ylnian
Язык : Russian
Default : Да
Forced : Да
Цветовой диапазон : Limited
Основные цвета : BT.709
Характеристики трансфера : BT.709
Коэффициенты матрицы : BT.709

Аудио #1
Идентификатор : 2
Формат : AC-3
Формат/Информация : Audio Coding 3
Коммерческое название : Dolby Digital
Идентификатор кодека : A_AC3
Продолжительность : 1 ч. 35 м.
Вид битрейта : Постоянный
Битрейт : 384 Кбит/сек
Каналы : 6 каналов
Channel layout : L R C LFE Ls Rs
Частота : 48,0 КГц
Частота кадров : 31,250 кадров/сек (1536 SPF)
Битовая глубина : 16 бит
Метод сжатия : С потерями
Размер потока : 263 Мбайт (7%)
Язык : Russian
Default : Да
Forced : Да

Аудио #2
Идентификатор : 3
Формат : AAC LC
Формат/Информация : Advanced Audio Codec Low Complexity
Идентификатор кодека : A_AAC-2
Продолжительность : 1 ч. 35 м.
Битрейт : 126 Кбит/сек
Каналы : 2 канала
Channel layout : L R
Частота : 48,0 КГц
Частота кадров : 46,875 кадров/сек (1024 SPF)
Метод сжатия : С потерями
Размер потока : 85,8 Мбайт (2%)
Язык : Russian
Default : Нет
Forced : Нет

Текст
Идентификатор : 4
Формат : UTF-8
Идентификатор кодека : S_TEXT/UTF8
Идентификатор кодека/Информация : UTF-8 Plain Text
Продолжительность : 1 ч. 35 м.
Битрейт : 37 бит/сек
ElementCount : 823
Размер потока : 26,4 Кбайт (0%)
Язык : English
Default : Нет
Forced : Нет

Меню
00:00:00.000 : ru:1
00:05:21.666 : ru:2
00:11:44.916 : ru:3
00:16:53.374 : ru:4
00:21:26.540 : ru:5
00:31:44.165 : ru:6
00:36:58.415 : ru:7
00:43:59.873 : ru:8
00:51:22.539 : ru:9
00:58:47.830 : ru:10
01:06:37.288 : ru:11
01:13:47.663 : ru:12
01:18:46.204 : ru:13
01:24:28.787 : ru:14
01:29:55.787 : ru:15

piratbit.pw



Скачать Хармс через торрент http://img15.lostpic.net/2018/12/20/7e3a272a60210e789c25ef98cf76cecf.png Скачать фильм Хармс через торрент бесплантно в хорошем качестве Описание: Он сам считает себя гением, но издательства отказываются печатать его произведения. Он любит женщин, но те не всегда его ... 8.7 10 6
Торрент: Зарегистрирован [2018-12-20 06:09] · скачан: 39 раз
Статус: √ проверено
Размер: 3.8 GB
Как cкачать? Как скачать Хармс через торрент | qTorrent

% Раздел Тема Автор DL S | L
Наши новые фильмы 2017 [ 1.46 GB ] Хармс [2017 биография WEB-DLRip] bober100 Скачать
1 | 0

28-11-2019 20:33  

Отключить всю рекламу на сайте

    Дорогой пользователь! Огромная просьба, поблагодарите релизера, оцените раздачу и оставьте свои комментарий, если Вы скачали Хармс через торрент бесплатно! Внесите свою лепту в развитие PiratBit!
    Комментировать посты могут только пользователи прошедшие не сложную регистрацию
    Показать сообщения:    

    Хармс через торрент
    Скачать бесплатно Хармс
    Хармс скачать торрент
    Хармс смотреть онлайн
    Cкачать фильм Хармс бесплатно
    Хармс скачать торрент в хорошем качестве
    Хармс смотреть онлайн бесплатно в хорошем качестве


    Вы не можете начинать темы
    Вы не можете отвечать на сообщения
    Вы не можете редактировать свои сообщения
    Вы не можете удалять свои сообщения
    Вы не можете голосовать в опросах
    Вы не можете прикреплять файлы к сообщениям
    Вы можете скачивать файлы