Ссылка на приватное зеркало нашего сайта всего за 1$. Внимание количество ограничено!!!

2 сезон

iTunes

iTunes

1

iTunes

iTunes

iTunes

WEBRip

iTunes

30
pack

Вам бонус

ВАЖНО

!!Акция!!

Alien_RageХит недели

RePack

Horizon Zero Dawn

ИГРА 18+

pack

RePack

jed

!!Акция!!

Alien_Rage

RePack

fifa19

RePack

Assassins Creed: Odyssey

RePack

NEED FOR SPEED™ PAYBACK

4 сезон

9 сезон

Бесстыжие 9 сезон

Все сериалы

все сериалы на PB.wtf

RePack

FAR CRY 5
  

Ураган / Hurricane (Дэвид Блэр) [2018, Драма, военный, BDRip 720p] MVO [HDRezka Studio], DVO - ExKinoRay piratbit.pw

Ураган через торрент piratbit.pw

Раздают: 16 [ 544 KB/s ]
Размер: 4.76 GB | Добавлен: 13 д. назад | Торрент скачан:85 раз
Скачать  

14-12-2018 02:34 Ураган Скачать торрент  

Информация о фильме
Название: Ураган
Оригинальное название: Hurricane
Год выпуска: 2018
Жанр: Драма, военный
Режиссер: Дэвид Блэр
В ролях: Иван Реон, Майло Гибсон, Стефани Мартини, Марчин Дорочиньский, Криштоф Гадек, Род Артур, Дэн Бурман, Дрю Кэйн

Описание:
История польского пилота Яна Зумбаха, который вступает в ряды британских ВВС, чтобы дать финальный отпор летчику люфтваффе и предотвратить вторжение в Великобританию.

rating

Страна: Великобритания, Польша
Студия: Head Gear Films
Продолжительность: 01:47:38
Перевод: Профессиональный (многоголосый, закадровый) | HDRezka Studio
Профессиональный (двухголосый, закадровый) | В.Данилов, А.Соколова

Формат: MKV
Качество: BDRip 720p (исх. Hurricane.2018.1080p.BluRay.REMUX.AVC.DTS-HD.MA.5.1-FGT)
Видео: MPEG-4 AVC, 1280x534 (2.40:1), 24.000 fps, 4583 Kbps, 0.279 bit/pixel
Звук:
Аудио 1: 48 kHz, AC3, 5.1, 448 Kbps | MVO | RUS |
Аудио 2: 48 kHz, AC3, 5.1, 640 Kbps | DVO | RUS |
Аудио 3: 48 kHz, AC3, 5.1, 640 Kbps | ENG
Субтитры: Русские (форс. на немецкую речь), aнглийские (форс. хардсаб, полные)
General
Unique ID : 175029892006768094558752043265147845123 (0x83AD87F0C980B6FDB39BA8358594BA03)
Complete name : F:\Hurricane.2018.2xRus.BDRip.720p.ExKinoRay.mkv
Format : Matroska
Format version : Version 2
File size : 4.76 GiB
Duration : 1 h 50 min
Overall bit rate : 6 185 kb/s
Movie name : Hurricane 2018 from ExKinoRay
Encoded date : UTC 2020-09-11 19:06:41
Writing application : mkvmerge v5.6.0 ('Kenya Kane') built on May 27 2012 16:44:04
Writing library : libebml v1.2.3 + libmatroska v1.3.0

Video
ID : 1
Format : AVC
Format/Info : Advanced Video Codec
Format profile : High@L4.1
Format settings, CABAC : Yes
Format settings, ReFrames : 12 frames
Codec ID : V_MPEG4/ISO/AVC
Duration : 1 h 50 min
Bit rate : 4 334 kb/s
Nominal bit rate : 4 583 kb/s
Width : 1 280 pixels
Height : 534 pixels
Display aspect ratio : 2.40:1
Frame rate mode : Constant
Frame rate : 24.000 FPS
Color space : YUV
Chroma subsampling : 4:2:0
Bit depth : 8 bits
Scan type : Progressive
Bits/(Pixel*Frame) : 0.264
Stream size : 3.33 GiB (70%)
Title : Enigma
Writing library : x264 core 152 r2851 ba24899
Encoding settings : cabac=1 / ref=12 / deblock=1:-2:-2 / analyse=0x3:0x113 / me=umh / subme=10 / psy=1 / psy_rd=1.02:0.05 / mixed_ref=1 / me_range=32 / chroma_me=1 / trellis=2 / 8x8dct=1 / cqm=0 / deadzone=21,11 / fast_pskip=0 / chroma_qp_offset=-3 / threads=12 / lookahead_threads=3 / sliced_threads=0 / nr=0 / decimate=0 / interlaced=0 / bluray_compat=0 / constrained_intra=0 / bframes=14 / b_pyramid=2 / b_adapt=2 / b_bias=0 / direct=3 / weightb=1 / open_gop=0 / weightp=2 / keyint=240 / keyint_min=24 / scenecut=40 / intra_refresh=0 / rc_lookahead=40 / rc=2pass / mbtree=0 / bitrate=4583 / ratetol=1.0 / qcomp=0.60 / qpmin=0 / qpmax=51 / qpstep=4 / cplxblur=20.0 / qblur=0.5 / vbv_maxrate=50000 / vbv_bufsize=62500 / nal_hrd=none / filler=0 / ip_ratio=1.40 / pb_ratio=1.30 / aq=2:0.90
Language : English
Default : Yes
Forced : No
Color range : Limited
Color primaries : BT.709
Transfer characteristics : BT.709
Matrix coefficients : BT.709

Audio #1
ID : 2
Format : AC-3
Format/Info : Audio Coding 3
Mode extension : CM (complete main)
Format settings, Endianness : Big
Codec ID : A_AC3
Duration : 1 h 50 min
Bit rate mode : Constant
Bit rate : 448 kb/s
Channel(s) : 6 channels
Channel positions : Front: L C R, Side: L R, LFE
Sampling rate : 48.0 kHz
Frame rate : 31.250 FPS (1536 spf)
Compression mode : Lossy
Stream size : 353 MiB (7%)
Title : MVO (HDrezka Studio)
Language : Russian
Default : Yes
Forced : No

Audio #2
ID : 3
Format : AC-3
Format/Info : Audio Coding 3
Mode extension : CM (complete main)
Format settings, Endianness : Big
Codec ID : A_AC3
Duration : 1 h 50 min
Bit rate mode : Constant
Bit rate : 640 kb/s
Channel(s) : 6 channels
Channel positions : Front: L C R, Side: L R, LFE
Sampling rate : 48.0 kHz
Frame rate : 31.250 FPS (1536 spf)
Compression mode : Lossy
Stream size : 504 MiB (10%)
Title : DVO
Language : Russian
Default : No
Forced : No

Audio #3
ID : 4
Format : AC-3
Format/Info : Audio Coding 3
Mode extension : CM (complete main)
Format settings, Endianness : Big
Codec ID : A_AC3
Duration : 1 h 50 min
Bit rate mode : Constant
Bit rate : 640 kb/s
Channel(s) : 6 channels
Channel positions : Front: L C R, Side: L R, LFE
Sampling rate : 48.0 kHz
Frame rate : 31.250 FPS (1536 spf)
Compression mode : Lossy
Stream size : 504 MiB (10%)
Language : English
Default : No
Forced : No

Text #1
ID : 5
Format : UTF-8
Codec ID : S_TEXT/UTF8
Codec ID/Info : UTF-8 Plain Text
Title : Forced
Language : Russian
Default : Yes
Forced : No

Text #2
ID : 6
Format : UTF-8
Codec ID : S_TEXT/UTF8
Codec ID/Info : UTF-8 Plain Text
Language : English
Default : No
Forced : No

Menu
00:00:00.000 : en:Chapter 01
00:09:16.666 : en:Chapter 02
00:17:38.125 : en:Chapter 03
00:28:06.500 : en:Chapter 04
00:38:33.416 : en:Chapter 05
00:44:07.166 : en:Chapter 06
00:53:05.541 : en:Chapter 07
01:00:42.708 : en:Chapter 08
01:08:58.166 : en:Chapter 09
01:18:09.583 : en:Chapter 10
01:25:20.041 : en:Chapter 11
01:35:42.208 : en:Chapter 12


Релиз от:

Автор релиза: piratbit.pw



Скачать Ураган через торрент https://d.radikal.ru/d25/1812/ec/f75eca6e14d5.png Скачать фильм Ураган через торрент бесплантно в хорошем качестве Описание: История польского пилота Яна Зумбаха, который вступает в ряды британских ВВС, чтобы дать финальный отпор летчику люфтваффе и ... 9 10 9
Info! Золотая раздача, скачанное не засчитывается.
Торрент: Зарегистрирован [2020-09-11 19:38] · скачан: 85 раз
Статус: √ проверено
Размер: 4.76 GB
Как cкачать? Как скачать Ураган через торрент | qTorrent

% Раздел Тема Автор DL S | L
Фильмы 2018 [DVDrip, WEB-DLRip, HDrip] (DUB, MVO) [ 2.06 GB ] Ограбление в ураган / The Hurricane Heist [2018 BDRip-AVC] - ExKinoRay Enigma2010 Скачать
2 | 0
Фильмы 2018 [DVDrip, WEB-DLRip, HDrip] (DUB, MVO) [ 1.92 GB ] Ограбление в ураган / The Hurricane Heist [2018 WEB-DLRip-AVC] - ExKinoRay Enigma2010 Скачать
1 | 0


Последний раз редактировалось: Enigma2010 (2020-09-11 19:40), всего редактировалось 2 раз(а)

28-11-2019 20:33  

Отключить всю рекламу на сайте

14-12-2018 03:34 Ураган Скачать торрент  

Спасибо Бро piratbit.pw



14-12-2018 17:20 Ураган Скачать торрент  

Рамси Болтон у штурвалаpiratbit.pw



11-09-2020 19:39 Ураган Скачать торрент  

Замена многоголоски на 6 каналов, добавлен двухголосый перевод.piratbit.pw



12-09-2020 01:45 Ураган Скачать торрент  

исходя из того, что фильм польский, можно предположить что во всем виноваты кровавые русские. исходя из того, что фильм еще и британский, можно предположить что понятие субординации в фильме напрочь отсутствует. ну ниче, рамси болтон натянет глаз на жопу всем!)piratbit.pw



13-09-2020 01:25 Ураган Скачать торрент  

В очередной раз поражаешься смыслу многих диалогов.

Англичане считают поляков животными.
Поляки воюют и требуют оплаты работы.

Надо было весь этот зоопарк стереть с лица земли в 45 вместе с немцами.piratbit.pw



13-09-2020 15:29 Ураган Скачать торрент  

не пошло кино.piratbit.pw



13-09-2020 18:04 Ураган Скачать торрент  

yrygyla писал(а):

Надо было весь этот зоопарк стереть с лица земли в 45 вместе с немцами.

Жаль твоих предков тогда не стерли.piratbit.pw



    Дорогой пользователь! Огромная просьба, поблагодарите релизера, оцените раздачу и оставьте свои комментарий, если Вы скачали Ураган через торрент бесплатно! Внесите свою лепту в развитие PiratBit!
    Комментировать посты могут только пользователи прошедшие не сложную регистрацию
    Показать сообщения:    

    Ураган через торрент
    Скачать бесплатно Ураган
    Ураган скачать торрент
    Ураган смотреть онлайн
    Cкачать фильм Ураган бесплатно
    Ураган скачать торрент в хорошем качестве
    Ураган смотреть онлайн бесплатно в хорошем качестве


    Вы не можете начинать темы
    Вы не можете отвечать на сообщения
    Вы не можете редактировать свои сообщения
    Вы не можете удалять свои сообщения
    Вы не можете голосовать в опросах
    Вы не можете прикреплять файлы к сообщениям
    Вы можете скачивать файлы