Marvel's Avengers Deluxe Edition (супер цена) 159р. Внимание количество ограничено!!!

2 сезон

iTunes

iTunes

1

iTunes

iTunes

iTunes

WEBRip

iTunes

30
pack

Новость дня

ВАЖНО

!!Акция!!

Alien_RageХит недели

RePack

Horizon Zero Dawn

ИГРА 18+

pack

RePack

jed

!!Акция!!

Alien_Rage

RePack

fifa19

RePack

Assassins Creed: Odyssey

RePack

NEED FOR SPEED™ PAYBACK

4 сезон

9 сезон

Бесстыжие 9 сезон

Все сериалы

все сериалы на PB.wtf

RePack

FAR CRY 5
  

Пленный (Алексей Учитель) [2008, драма, военный, BDRip 720p] piratbit.pw

Пленный через торрент piratbit.pw

Размер: 4.37 GB | Добавлен: 1 год 9 мес. назад | Торрент скачан:163 раза
Скачать  

11-12-2018 10:47 Пленный Скачать торрент  

Пленный Год выпуска: 2008
Страна: Россия Болгария
Жанр: драма, военный
Продолжительность: 01:20:21
Перевод: не требуется (оригинал)
Субтитры: отсутствуют

Режиссер: Алексей Учитель

rating

В ролях:

Юлия Пересильд, Вячеслав Крикунов, Петр Логачев, Ираклий Мсхалаиа, Сергей Уманов, Тагир Рахимов

Описание:

Кавказская война. Чеченцы перекрыли дорогу, и федералам нужно заплатить за проезд. Денег или патронов нет, подкрепления ждать неоткуда, поэтому двое бывалых рядовых-старослужащих ловят пленного, чтобы им расплатиться за проезд. Груз, впрочем, оказывается более ценным и опасным, чем они думали...

Качество: BDRip 720p
Формат: MKV

Видео: 1280x720 (16:9), 25.000 fps, MPEG-4 AVC ~7 342 kbps avg
Аудио: 48.0 kHz, AC3 Dolby Digital, 3/2 (L,C,R,l,r) + LFE ch, ~448 kbps
скриншот  скриншот  скриншот  

General
Unique ID : 251574158816634063101169751663556779180 (0xBD436BAA7808083E883F1F23A4295CAC)
Complete name : Plennyj.BDRip.720p.mkv
Format : Matroska
Format version : Version 2
File size : 4.37 GiB
Duration : 1 h 20 min
Overall bit rate : 7 783 kb/s
Encoded date : UTC 2014-07-29 08:16:47
Writing application : mkvmerge v3.3.0 ('Language') gebaut am Mar 24 2010 14:59:24
Writing library : libebml v0.8.0 + libmatroska v0.9.0

Video
ID : 1
Format : AVC
Format/Info : Advanced Video Codec
Format profile : High@L4.1
Format settings, CABAC : Yes
Format settings, RefFrames : 8 frames
Codec ID : V_MPEG4/ISO/AVC
Duration : 1 h 20 min
Bit rate : 7 342 kb/s
Width : 1 280 pixels
Height : 720 pixels
Display aspect ratio : 16:9
Frame rate mode : Constant
Frame rate : 25.000 FPS
Color space : YUV
Chroma subsampling : 4:2:0
Bit depth : 8 bits
Scan type : Progressive
Bits/(Pixel*Frame) : 0.319
Stream size : 4.03 GiB (92%)
Writing library : x264 core 142 r2431 ac76440
Encoding settings : cabac=1 / ref=8 / deblock=1:-2:-2 / analyse=0x3:0x113 / me=umh / subme=11 / psy=1 / psy_rd=1.00:0.00 / mixed_ref=1 / me_range=32 / chroma_me=1 / trellis=2 / 8x8dct=1 / cqm=0 / deadzone=21,11 / fast_pskip=0 / chroma_qp_offset=-2 / threads=12 / lookahead_threads=1 / sliced_threads=0 / nr=0 / decimate=1 / interlaced=0 / bluray_compat=0 / constrained_intra=0 / bframes=10 / b_pyramid=2 / b_adapt=1 / b_bias=0 / direct=3 / weightb=1 / open_gop=0 / weightp=2 / keyint=250 / keyint_min=25 / scenecut=40 / intra_refresh=0 / rc_lookahead=40 / rc=2pass / mbtree=0 / bitrate=7342 / ratetol=1.0 / qcomp=0.60 / qpmin=0 / qpmax=69 / qpstep=4 / cplxblur=20.0 / qblur=0.5 / vbv_maxrate=50000 / vbv_bufsize=50000 / nal_hrd=none / filler=0 / ip_ratio=1.40 / pb_ratio=1.30 / aq=1:1.00
Language : Russian
Default : No
Forced : No

Audio
ID : 2
Format : AC-3
Format/Info : Audio Coding 3
Format settings, Endianness : Big
Codec ID : A_AC3
Duration : 1 h 20 min
Bit rate mode : Constant
Bit rate : 448 kb/s
Channel(s) : 6 channels
Channel positions : Front: L C R, Side: L R, LFE
Sampling rate : 48.0 kHz
Frame rate : 31.250 FPS (1536 SPF)
Bit depth : 16 bits
Compression mode : Lossy
Stream size : 258 MiB (6%)
Language : Russian
Service kind : Complete Main
Default : Yes
Forced : No

piratbit.pw



Скачать Пленный через торрент http://b.radikal.ru/b36/1812/ec/68970f08eb87.png Скачать фильм Пленный через торрент бесплантно в хорошем качестве Описание: Кавказская война. Чеченцы перекрыли дорогу, и федералам нужно заплатить за проезд. Денег или патронов нет, подкрепления ждать ... 10 10 9
Торрент: Зарегистрирован [2018-12-11 10:47] · скачан: 163 раз
Статус: √ проверено
Размер: 4.37 GB
Как cкачать? Как скачать Пленный через торрент | qTorrent

% Раздел Тема Автор DL S | L
Зарубежные сериалы [ 12.06 GB ] Затопленный город / Курон / Curon / Сезон: 1 / Серии: 1-7 из 7 [2020 WEBRip 1080p] MVO [HDRezka Studio] bober100 Скачать
2 | 0
Фильмы 2019-2020 [DVDrip, WEB-DLRip, HDrip] (DUB, MVO) [ 748 MB ] Ослепленный светом / Blinded by the Light [2019 музыка HDRip] bober100 Скачать
1 | 0
Фильмы [HD 720p, 1080p] (Хороший звук DUB, MVO) [ 6.57 GB ] Ослепленный светом / Blinded by the Light [2019 музыка BDRip 720p] bober100 Скачать
1 | 0
Фильмы 2019-2020 [DVDrip, WEB-DLRip, HDrip] (DUB, MVO) [ 1.46 GB ] Ослепленный светом / Blinded by the Light [2019 музыка BDRip] bober100 Скачать
1 | 0
Фильмы [HD 720p, 1080p] (Хороший звук DUB, MVO) [ 11.9 GB ] Ослепленный светом / Blinded by the Light [2019 музыка BDRip 1080p] bober100 Скачать
1 | 0
Фильмы (Blu-ray, BD-Remux, HDDVD) [ 21.55 GB ] Ослепленный светом / Blinded by the Light [2019 музыка BD Remux 1080p] bober100 Скачать
1 | 0
Фильмы с украинским озвучиванием [ 2.55 GB ] В плену у оборотня / В полонi у перевертня [2019 SiteRip 1080p] killermax2013 Скачать
1 | 0

28-11-2019 20:33  

Отключить всю рекламу на сайте

11-12-2018 14:57 Пленный Скачать торрент  

И плохого не скажу.И сюжет в двух словах.Зря потраченное время.piratbit.pw



    Дорогой пользователь! Огромная просьба, поблагодарите релизера, оцените раздачу и оставьте свои комментарий, если Вы скачали Пленный через торрент бесплатно! Внесите свою лепту в развитие PiratBit!
    Комментировать посты могут только пользователи прошедшие не сложную регистрацию
    Показать сообщения:    

    Пленный через торрент
    Скачать бесплатно Пленный
    Пленный скачать торрент
    Пленный смотреть онлайн
    Cкачать фильм Пленный бесплатно
    Пленный скачать торрент в хорошем качестве
    Пленный смотреть онлайн бесплатно в хорошем качестве


    Вы не можете начинать темы
    Вы не можете отвечать на сообщения
    Вы не можете редактировать свои сообщения
    Вы не можете удалять свои сообщения
    Вы не можете голосовать в опросах
    Вы не можете прикреплять файлы к сообщениям
    Вы можете скачивать файлы