Ссылка на приватное зеркало нашего сайта всего за 1$. Внимание количество ограничено!!!

2 сезон

iTunes

iTunes

1

iTunes

iTunes

iTunes

WEBRip

iTunes

30
pack

Вам бонус

ВАЖНО

!!Акция!!

Alien_RageХит недели

RePack

Horizon Zero Dawn

ИГРА 18+

pack

RePack

jed

!!Акция!!

Alien_Rage

RePack

fifa19

RePack

Assassins Creed: Odyssey

RePack

NEED FOR SPEED™ PAYBACK

4 сезон

9 сезон

Бесстыжие 9 сезон

Все сериалы

все сериалы на PB.wtf

RePack

FAR CRY 5
  

Подбросы (Иван Твердовский (II) [2018, драма, WEB-DL 1080p] [iTunes] piratbit.pw

Подбросы через торрент piratbit.pw

Размер: 3.2 GB | Добавлен: 1 год 9 мес. назад | Торрент скачан:230 раз
Скачать  

06-12-2018 10:01 Подбросы Скачать торрент  

ПодбросыГод выпуска: 2018
Страна: Россия, Ирландия, Литва, Франция
Жанр: драма
Продолжительность: 01:23:09
Перевод: Не требуется | iTunes
Субтитры: отсутствуют

Режиссер: Иван Твердовский (II)

rating

В ролях:

Денис Власенко, Анна Слю, Данил Стеклов, Павел Чинарёв, Вильма Кутавичюте, Александра Урсуляк, Максим Виторган, Александр Золотовицкий, Данила Ариков, Елена Коробанова

Описание:

Брошенный в младенчестве, Денис вырос и превратился в юношу с уникальной способностью не чувствовать боли. Внезапно жизнь молодого человека кардинально меняется: его находит мать и увозит жить в Москву. Она окружает Дениса заботой, вниманием, играет роль задушевной подружки и вводит юношу в загадочную среду столичных мошенников и коррупционеров. Ради материнской любви доверчивый паренек готов стать участником рискованной авантюры «сильных мира сего».

Качество: WEB-DL 1080p
Формат: MKV

Видео: MPEG-4 AVC, 5116 Кбит/с, 1920x804
Аудио: Русский (AC3, 6 ch, 384 Кбит/с)
скриншот  скриншот  скриншот  

Общее
Уникальный идентификатор : 209352035718358089328872612659427906720 (0x9D7FBC46819EC604B1B474889B7594A0)
Полное имя : D:\Podbrosy.2018.O.WEB-DL.1080p.mkv
Формат : Matroska
Версия формата : Version 2
Размер файла : 3,20 Гбайт
Продолжительность : 1 ч. 23 м.
Общий поток : 5501 Кбит/сек
Название фильма : Podbrosy.2018.WEB-DL.(1080p).Getty
Дата кодирования : UTC 2018-12-06 06:49:32
Программа кодирования : mkvmerge v8.3.0 ('Over the Horizon') 64bit
Библиотека кодирования : libebml v1.3.1 + libmatroska v1.4.2

Видео
Идентификатор : 1
Формат : AVC
Формат/Информация : Advanced Video Codec
Профиль формата : High@L4
Параметр CABAC формата : Да
Параметр RefFrames формата : 4 кадра
Идентификатор кодека : V_MPEG4/ISO/AVC
Продолжительность : 1 ч. 23 м.
Битрейт : 5116 Кбит/сек
Ширина : 1920 пикселей
Высота : 804 пикселя
Соотношение сторон : 2,40:1
Режим частоты кадров : Постоянный
Частота кадров : 25,000 кадров/сек
Цветовое пространство : YUV
Субдискретизация насыщенности : 4:2:0
Битовая глубина : 8 бит
Тип развёртки : Прогрессивная
Бит/(Пиксели*Кадры) : 0.130
Размер потока : 2,91 Гбайт (91%)
Язык : Russian
Default : Да
Forced : Нет

Аудио
Идентификатор : 2
Формат : AC-3
Формат/Информация : Audio Coding 3
Расширение режима : CM (complete main)
Параметр Endianness формата : Big
Идентификатор кодека : A_AC3
Продолжительность : 1 ч. 23 м.
Вид битрейта : Постоянный
Битрейт : 384 Кбит/сек
Каналы : 6 каналов
Расположение каналов : Front: L C R, Side: L R, LFE
Частота : 48,0 КГц
Частота кадров : 31,250 кадров/сек (1536 spf)
Метод сжатия : С потерями
Размер потока : 228 Мбайт (7%)
Язык : Russian
Default : Да
Forced : Нет

piratbit.pw



Скачать Подбросы через торрент https://b.radikal.ru/b33/1812/8d/c58e88ad51fd.png Скачать фильм Подбросы через торрент бесплантно в хорошем качестве Описание: Брошенный в младенчестве, Денис вырос и превратился в юношу с уникальной способностью не чувствовать боли. Внезапно жизнь ... 10 10 6
Торрент: Зарегистрирован [2018-12-06 10:01] · скачан: 230 раз
Статус: √ проверено
Размер: 3.2 GB
Как cкачать? Как скачать Подбросы через торрент | qTorrent

% Раздел Тема Автор DL S | L
Наши новые фильмы 2018-2019 [ 1.46 GB ] Подбросы [2018 WEB-DLRip] bober100 Скачать
1 | 0


Последний раз редактировалось: bober100 (2018-12-06 10:31), всего редактировалось 1 раз

28-11-2019 20:33  

Отключить всю рекламу на сайте

06-12-2018 10:06 Подбросы Скачать торрент  

Я один сначала прочитал-"Пид...сы"? piratbit.pw



06-12-2018 17:13 Подбросы Скачать торрент  

Stopper68 писал(а):

Я один сначала прочитал-"Пид...сы"?

Даpiratbit.pw



    Дорогой пользователь! Огромная просьба, поблагодарите релизера, оцените раздачу и оставьте свои комментарий, если Вы скачали Подбросы через торрент бесплатно! Внесите свою лепту в развитие PiratBit!
    Комментировать посты могут только пользователи прошедшие не сложную регистрацию
    Показать сообщения:    

    Подбросы через торрент
    Скачать бесплатно Подбросы
    Подбросы скачать торрент
    Подбросы смотреть онлайн
    Cкачать фильм Подбросы бесплатно
    Подбросы скачать торрент в хорошем качестве
    Подбросы смотреть онлайн бесплатно в хорошем качестве


    Вы не можете начинать темы
    Вы не можете отвечать на сообщения
    Вы не можете редактировать свои сообщения
    Вы не можете удалять свои сообщения
    Вы не можете голосовать в опросах
    Вы не можете прикреплять файлы к сообщениям
    Вы можете скачивать файлы