Marvel's Avengers Deluxe Edition (супер цена) 159р. Внимание количество ограничено!!!

2 сезон

iTunes

iTunes

1

iTunes

iTunes

iTunes

WEBRip

iTunes

30
pack

Новость дня

ВАЖНО

!!Акция!!

Alien_RageХит недели

RePack

Horizon Zero Dawn

ИГРА 18+

pack

RePack

jed

!!Акция!!

Alien_Rage

RePack

fifa19

RePack

Assassins Creed: Odyssey

RePack

NEED FOR SPEED™ PAYBACK

4 сезон

9 сезон

Бесстыжие 9 сезон

Все сериалы

все сериалы на PB.wtf

RePack

FAR CRY 5
  

Три сестры (Юрий Грымов) [2017, драма, WEB-DL 1080p] [iTunes] piratbit.pw

Три сестры через торрент piratbit.pw

Размер: 4.42 GB | Добавлен: 1 год 9 мес. назад | Торрент скачан:25 раз
Скачать  

01-12-2018 13:34 Три сестры Скачать торрент  

Три сестрыГод выпуска: 2017
Страна: Россия
Жанр: драма
Продолжительность: 02:08:42
Перевод: Не требуется | iTunes
Субтитры: отсутствуют

Режиссер: Юрий Грымов



В ролях:

Александр Балуев, Максим Суханов, Анна Каменкова, Ирина Мазуркевич, Людмила Полякова, Игорь Ясулович, Игорь Яцко, Александр Пашутин, Владимир Носик, Виктор Потапешкин

Описание:

Жизнь трех сестер — Ольги, Ирины и Маши — кажется им самой обыкновенной. Но их жажда любви, нерастраченная страсть, сильные чувства ищут выхода и то и дело вырываются наружу — вопреки обстоятельствам, правилам, приличиям. Хотя они существуют в обыденных обстоятельствах: работают, мечтают, страдают от ощущения времени, которое уходит безвозвратно, все они хотят любви — настоящей, сильной, наполняющей жизнь светом и смыслом.

Качество: WEB-DL 1080p
Формат: MKV

Видео: MPEG-4 AVC, 4535 Кбит/с, 1920x804
Аудио: АС3, 6 ch, 384 Кбит/с
скриншот  скриншот  скриншот  скриншот  

Общее
Уникальный идентификатор : 198200440186138967482575619741586005629 (0x951C042A912A27548D611CEF61979E7D)
Полное имя : D:\Три сестры.2017.mkv
Формат : Matroska
Версия формата : Version 2
Размер файла : 4,42 Гбайт
Продолжительность : 2 ч. 8 м.
Общий поток : 4921 Кбит/сек
Дата кодирования : UTC 2018-11-30 09:54:52
Программа кодирования : mkvmerge v7.8.0 ('River Man') 32bit built on Mar 27 2015 16:18:02
Библиотека кодирования : libebml v1.3.1 + libmatroska v1.4.2

Видео
Идентификатор : 1
Формат : AVC
Формат/Информация : Advanced Video Codec
Профиль формата : High@L4
Параметр CABAC формата : Да
Параметр RefFrames формата : 5 кадров
Идентификатор кодека : V_MPEG4/ISO/AVC
Продолжительность : 2 ч. 8 м.
Битрейт : 4535 Кбит/сек
Ширина : 1920 пикселей
Высота : 804 пикселя
Соотношение сторон : 2,40:1
Режим частоты кадров : Постоянный
Частота кадров : 24,000 кадра/сек
Цветовое пространство : YUV
Субдискретизация насыщенности : 4:2:0
Битовая глубина : 8 бит
Тип развёртки : Прогрессивная
Бит/(Пиксели*Кадры) : 0.120
Размер потока : 3,99 Гбайт (90%)
Заголовок : Три сестры 2017
Язык : Russian
Default : Да
Forced : Нет
Цветовой диапазон : Limited
Основные цвета : BT.709
Характеристики трансфера : BT.709
Коэффициенты матрицы : BT.709

Аудио
Идентификатор : 2
Формат : AC-3
Формат/Информация : Audio Coding 3
Расширение режима : CM (complete main)
Параметр Endianness формата : Big
Идентификатор кодека : A_AC3
Продолжительность : 2 ч. 8 м.
Вид битрейта : Постоянный
Битрейт : 384 Кбит/сек
Каналы : 6 каналов
Расположение каналов : Front: L C R, Side: L R, LFE
Частота : 48,0 КГц
Частота кадров : 31,250 кадров/сек (1536 spf)
Метод сжатия : С потерями
Размер потока : 353 Мбайт (8%)
Заголовок : AC-3; 16 bits 48 Khz; 5.1ch 384 Kbps; CBR
Язык : Russian
Default : Да
Forced : Нет

piratbit.pw



Скачать Три сестры через торрент https://i98.fastpic.ru/big/2017/1125/6a/47a14ddebcfa31e155a7c794e1ac996a.jpg Скачать фильм Три сестры через торрент бесплантно в хорошем качестве Описание: Жизнь трех сестер — Ольги, Ирины и Маши — кажется им самой обыкновенной. Но их жажда любви, нерастраченная страсть, сильные ... 7.8 10 4
Торрент: Зарегистрирован [2018-12-01 13:34] · скачан: 25 раз
Статус: √ проверено
Размер: 4.42 GB
Как cкачать? Как скачать Три сестры через торрент | qTorrent

% Раздел Тема Автор DL S | L
Зарубежные сериалы [ 2.42 GB ] Сестра Рэтчед / Ratched / Сезон: 1 / Серии: 1- из 8 [2020 WEB-DL 1080p] MVO [BaibaKo] bober100 Скачать
1 | 0
Арт-хаус и авторское кино [ 11.02 GB ] Сестра Урсулы / La sorella di Ursula [1978 BDRip 1080p by msltel] VO msltel Скачать
1 | 0
Арт-хаус и авторское кино [ 3.86 GB ] Сестра Урсулы / La sorella di Ursula [1978 BDRip 720p by msltel] VO msltel Скачать
1 | 0
Арт-хаус и авторское кино [ 2.22 GB ] Сестра Урсулы / La sorella di Ursula [1978 BDRip-AVC by msltel] VO msltel Скачать
1 | 0
Детективы, Боевики, Триллеры [ 214 MB ] Кортни Саммерс - Сёстры [Креминский Дмитрий 2020 64 kbps MP3] bober100 Скачать
1 | 0
T Фильмы (мультфильмы) cо спонсором показа (Новинки AVI/MKV) [ 1.37 GB ] Сестры-терминаторы: Генезис / Terminator sisters: Genesis / Shuang Zi Qi Yuan [2017 WEB-DLRip] MVO [КОЛОБОК] bober100 Скачать
1 | 0
T Фильмы (мультфильмы) cо спонсором показа (Новинки AVI/MKV) [ 2.97 GB ] Сестры-терминаторы: Генезис / Terminator sisters: Genesis / Shuang Zi Qi Yuan [2017 WEB-DL 720p] MVO [КОЛОБОК] bober100 Скачать
1 | 0

28-11-2019 20:33  

Отключить всю рекламу на сайте

02-12-2018 04:33 Три сестры Скачать торрент  

к чему эти ч/б понты?Вот пусть сам и смотрит...piratbit.pw



    Дорогой пользователь! Огромная просьба, поблагодарите релизера, оцените раздачу и оставьте свои комментарий, если Вы скачали Три сестры через торрент бесплатно! Внесите свою лепту в развитие PiratBit!
    Комментировать посты могут только пользователи прошедшие не сложную регистрацию
    Показать сообщения:    

    Три сестры через торрент
    Скачать бесплатно Три сестры
    Три сестры скачать торрент
    Три сестры смотреть онлайн
    Cкачать фильм Три сестры бесплатно
    Три сестры скачать торрент в хорошем качестве
    Три сестры смотреть онлайн бесплатно в хорошем качестве


    Вы не можете начинать темы
    Вы не можете отвечать на сообщения
    Вы не можете редактировать свои сообщения
    Вы не можете удалять свои сообщения
    Вы не можете голосовать в опросах
    Вы не можете прикреплять файлы к сообщениям
    Вы можете скачивать файлы