1 сезон

1 сезон

iTunes

1

КиноПоиск HD

Кинопоиск HD

iTunes

13

1 сезон

RePack

30

Ultimate

ВАЖНО

ИГРА 18+

pack

RePack

MK11
pack

Легкие деньги

RePack

jed

RePack

fifa19

RePack

RDR2

RePack

NEED FOR SPEED™ PAYBACK

4 сезон

9 сезон

Бесстыжие 9 сезон

Все сериалы

все сериалы на PB.wtf

RePack

FAR CRY 5
  
Magnet ссылка

Тумбад / Tumbbad (Рахи Анил Барве, Адеш Прасад) [2018, Триллер, Ужасы, WEB-DL 1080p] AVO [А.Важенин (BadBajo)] piratbit.pw

Тумбад через торрент piratbit.pw

Размер: 4.63 GB | Добавлен: 2 года 4 мес. назад | Торрент скачан:79 раз
Скачать  

01-12-2018 04:53 Тумбад Скачать торрент  

Тумбад / Tumbbad Год выпуска: 2018
Страна: Индия, Швеция
Жанр: Триллер, Ужасы
Продолжительность: 01:44:57
Перевод: Авторский (одноголосый) l
Субтитры: Английские (отключаемые)

Режиссер: Рахи Анил Барве, Адеш Прасад

rating

В ролях:

Ронджини Чакраборти, Дипак Дамле, Анита Дате, Дхундирадж Прабхакар Джогалекар, Хэриш Ханна, Джоти Малше, Мохд Самад, Сохам Шах

Описание:

На заре веков Богиня-мать породила нескольких Богов, и самым любимым был её первенец — Хастад. Он решил, что всё золото мира должно принадлежать ему, за что был повержен другими Богами и почти уничтожен, но Богиня-мать спасла его и поместила в своё чрево. С тех пор люди забыли падшего Бога, не ставили ему алтари и не возносили молитвы.

Индия, начало XX века. Неподалеку от замшелой деревушки Тумбад живет внебрачный сын местного лорда по имени Винаяк. В их доме спит проклятая прабабка-ведьма, которую мать Винаяка должна кормить, чтобы та не проснулась и не съела детей, также ходят слухи, что где-то в этой местности хранятся несметные богатства. После смерти лорда мать вместе с сыном уезжает в большой город, взяв с него клятву никогда не возвращаться в Тумбад. Через несколько лет уже взрослый Винаяк приезжает в родные края с твёрдой уверенностью, что сокровища спрятаны в заброшенном замке почившего лорда.

Качество: WEB-DL 1080p
Формат: MKV

Видео: 1920х816, ~5029 Kbps, 23.976 (24000/1001) FPS
Аудио#1: Русский: AC3, 6 ch, 640 Kbps (BadBajo)
Аудио#2: Индийский: Е-AC3, 6 ch, 640 Kbps
скриншот  скриншот  скриншот  

скриншот  скриншот  скриншот  

Общее
Уникальный идентификатор : 61180290412856735147109743517600269153 (0x2E06E5346DA6F5EA0812C1355AC34361)
Полное имя : D:\Tumbbad (2018) 1080p DDP 5.1_rus_BadBajo.mkv
Формат : Matroska
Версия формата : Version 4 / Version 2
Размер файла : 4,63 Гбайт
Продолжительность : 1 ч. 44 м.
Общий поток : 6311 Кбит/сек
Название фильма : Tumbbad (2018) 1080p DDP 5.1_rus_BadBajo
Дата кодирования : UTC 2018-12-01 02:45:25
Программа кодирования : mkvmerge v20.0.0 ('I Am The Sun') 64-bit
Библиотека кодирования : libebml v1.3.5 + libmatroska v1.4.8
Обложка : Yes
Attachments : cover.jpg

Видео
Идентификатор : 1
Формат : AVC
Формат/Информация : Advanced Video Codec
Профиль формата : High@L4
Параметр CABAC формата : Да
Параметр RefFrames формата : 4 кадра
Идентификатор кодека : V_MPEG4/ISO/AVC
Продолжительность : 1 ч. 44 м.
Битрейт : 5029 Кбит/сек
Ширина : 1920 пикселей
Высота : 816 пикселей
Соотношение сторон : 2,35:1
Режим частоты кадров : Постоянный
Частота кадров : 24,000 кадра/сек
Цветовое пространство : YUV
Субдискретизация насыщенности : 4:2:0
Битовая глубина : 8 бит
Тип развёртки : Прогрессивная
Бит/(Пиксели*Кадры) : 0.130
Размер потока : 3,60 Гбайт (78%)
Заголовок : Tumbbad (2018) 1080p DDP 5.1
Default : Да
Forced : Нет
Цветовой диапазон : Limited
Основные цвета : BT.709
Характеристики трансфера : BT.709
Коэффициенты матрицы : BT.709

Аудио #1
Идентификатор : 2
Формат : AC-3
Формат/Информация : Audio Coding 3
Расширение режима : CM (complete main)
Параметр Endianness формата : Big
Идентификатор кодека : A_AC3
Продолжительность : 1 ч. 44 м.
Вид битрейта : Постоянный
Битрейт : 640 Кбит/сек
Каналы : 6 каналов
Расположение каналов : Front: L C R, Side: L R, LFE
Частота : 48,0 КГц
Частота кадров : 31,250 кадров/сек (1536 spf)
Метод сжатия : С потерями
Размер потока : 480 Мбайт (10%)
Заголовок : Tumbbad_rus_BadBajo
Язык : Russian
Default : Да
Forced : Да

Аудио #2
Идентификатор : 3
Формат : E-AC-3
Формат/Информация : Audio Coding 3
Параметр Endianness формата : Big
Идентификатор кодека : A_EAC3
Продолжительность : 1 ч. 44 м.
Вид битрейта : Постоянный
Битрейт : 640 Кбит/сек
Каналы : 6 каналов
Расположение каналов : Front: L C R, Side: L R, LFE
Частота : 48,0 КГц
Частота кадров : 187,500 кадров/сек (256 spf)
Метод сжатия : С потерями
Размер потока : 480 Мбайт (10%)
Заголовок : Tumbbad_hin
Язык : Hindi
Default : Нет
Forced : Нет

Текст
Идентификатор : 4
Формат : UTF-8
Идентификатор кодека : S_TEXT/UTF8
Идентификатор кодека/Информация : UTF-8 Plain Text
Язык : English
Default : Нет
Forced : Нет

piratbit.pw



Скачать Тумбад через торрент http://img10.lostpic.net/2018/12/01/a491a35bc8da8124036f188230bafc7a.jpg Скачать фильм Тумбад через торрент бесплантно в хорошем качестве Описание: На заре веков Богиня-мать породила нескольких Богов, и самым любимым был её первенец — Хастад. Он решил, что всё золото мира ... 8.6 10 5
Торрент: Зарегистрирован [2018-12-01 04:53] · скачан: 79 раз
Статус: √ проверено
Размер: 4.63 GB
Как cкачать? Как скачать Тумбад через торрент | UTorrent

% Раздел Тема Автор DL S | L
T Фильмы (мультфильмы) cо спонсором показа (Новинки AVI/MKV) [ 3.91 GB ] Тумбад / Tumbbad [2018 WEB-DL 720p] MVO ["Синема УС"] bober100 Скачать
1 | 0
T Фильмы (мультфильмы) cо спонсором показа (Новинки AVI/MKV) [ 1.37 GB ] Тумбад / Tumbbad [2018 WEB-DLRip] MVO ["Синема УС"] bober100 Скачать
1 | 0
Фильмы с авторской озвучкой [ 1.62 GB ] Тумбад / Tumbbad [2018 WEB-DLRip-AVC] AVO [А.Важенин ] bober100 Скачать
1 | 0

28-11-2019 20:33  

Отключить всю рекламу на сайте

01-12-2018 08:13 Тумбад Скачать торрент  

индусский серьезный кинчик я подожду многоголоску закадровую piratbit.pw



02-12-2018 11:43 Тумбад Скачать торрент  

посмотрел.есть что-то в этом фильме.и даже музыку здесь в тему как-то прилепили.и итог поучительный- как в старых умных сказках и баснях.piratbit.pw



    Дорогой пользователь! Огромная просьба, поблагодарите релизера, оцените раздачу и оставьте свои комментарий, если Вы скачали Тумбад через торрент бесплатно! Внесите свою лепту в развитие PiratBit!
    Комментировать посты могут только пользователи прошедшие не сложную регистрацию
    Показать сообщения:    

    Тумбад через торрент
    Скачать бесплатно Тумбад
    Тумбад скачать торрент
    Тумбад смотреть онлайн
    Cкачать фильм Тумбад бесплатно
    Тумбад скачать торрент в хорошем качестве
    Тумбад смотреть онлайн бесплатно в хорошем качестве


    Вы не можете начинать темы
    Вы не можете отвечать на сообщения
    Вы не можете редактировать свои сообщения
    Вы не можете удалять свои сообщения
    Вы не можете голосовать в опросах
    Вы не можете прикреплять файлы к сообщениям
    Вы можете скачивать файлы