1 сезон

1 сезон

iTunes

1

КиноПоиск HD

Кинопоиск HD

iTunes

13

1 сезон

RePack

30

Новинка

ВАЖНО

ИГРА 18+

pack

RePack

MK11
pack

Легкие деньги

RePack

jed

RePack

fifa19

RePack

RDR2

RePack

NEED FOR SPEED™ PAYBACK

4 сезон

9 сезон

Бесстыжие 9 сезон

Все сериалы

все сериалы на PB.wtf

RePack

FAR CRY 5
  
Magnet ссылка

Порки / Porky's (Боб Кларк) [1982 г., Комедия, BDRip 1080p, HEVC (10bit), 2хAVO (А.Гаврилов, Ю.Живов)] piratbit.pw

Порки через торрент piratbit.pw

Размер: 12.57 GB | Добавлен: 2 года 4 мес. назад | Торрент скачан:12 раз
Скачать  

24-11-2018 16:20 Порки Скачать торрент  

Порки / Porky's
Год выпуска: 1982
Страна: Канада, США
Жанр: Комедия
Продолжительность: 01:38:27
Перевод: Авторский (одноголосый)
Субтитры: Нет

Режиссер: Боб Кларк

rating

В ролях: Дэн Монахан, Марк Херриер, Уайатт Найт, Роджер Уилсон, Сирил О’Райлли, Тони Гэниос, Кэки Хантер, Ким Кэтролл, Нэнси Парсонс, Скотт Коломби

Описание: Невозможно даже представить какие нелепые идеи могут прийти в голову американским подросткам в период полового созревания. Они только что открыли для себя мир секса и теперь пытаются применить свои скудные познания на практике. Мальчики и девочки выплескивают свою сексуальную энергию, буквально на все что их окружает. Их «безобидные» шалости приводят в ужас старшее поколение. А безумно веселые шутки на грани фола, заставят засмеяться кого угодно.
Доп. информация: -
H.265/HEVC (High Efficiency Video Coding) - это новый стандарт кодирования видео.
- Стандарт H.265/HEVC является логическим продолжением стандарта
H.264/AVC (Advanced Video Coding), и характеризуется более эффективными
алгоритмами сжатия, а также поддержкой высокого разрешения вплоть до 8K UHD
(8192x4320). Первая версия стандарта H.265 была опубликована в начале 2013 года.
- Рипы в фомате HEVC поддерживается не всеми аппаратными проигрывателями.
- Для корректного воспроизведения может потребоваться обновление ПО.
- Владельцам несовместимого железа просьба не беспокоить,
есть альтернативные релизы.
Качество: BDRip 1080p
Формат: MKV
Видео кодек: H.265
Аудио кодек: AC3
Видео: 1920x1036, ~17.9 Mb/s
Аудио#1: AC3, 2 ch, 192 Kbps - AVO, (Гаврилов)
Аудио#2: AC3, 2 ch, 192 Kbps - AVO, (Живов)
Релиз от: leha19755

Общее
Уникальный идентификатор : 133443118140960356364323420225843565130 (0x646435AF8E19A09010C4E7991345124A)
Полное имя : F:\РАЗДАЧИ\Porky's.1981.BDRip1080p.HEVC.mkv
Формат : Matroska
Версия формата : Version 4 / Version 2
Размер файла : 12,6 Гбайт
Продолжительность : 1 ч. 38 м.
Общий поток : 18,3 Мбит/сек
Название фильма : Порки / Porky's 1982
Дата кодирования : UTC 2018-11-20 19:36:12
Программа кодирования : mkvmerge v28.0.0 ('Voice In My Head') 64-bit
Библиотека кодирования : libebml v1.3.6 + libmatroska v1.4.9 / Lavf57.71.100
Обложка : Yes
Attachments : cover.jpg
ENCODING_INFO : MATROSKA,WEBM > MKV / H264 > X265 CRF 19.0 Placebo / AC3 > COPY Безопасное / AC3 > COPY Безопасное / AC3 > COPY Безопасное

Видео
Идентификатор : 1
Формат : HEVC
Формат/Информация : High Efficiency Video Coding
Профиль формата : Main@L5.1@High
Идентификатор кодека : V_MPEGH/ISO/HEVC
Продолжительность : 1 ч. 38 м.
Битрейт : 17,9 Мбит/сек
Ширина : 1920 пикселей
Высота : 1036 пикселей
Соотношение сторон : 1,85:1
Режим частоты кадров : Постоянный
Частота кадров : 23,976 (24000/1001) кадра/сек
Цветовое пространство : YUV
Субдискретизация насыщенности : 4:2:0
Битовая глубина : 8 бит
Бит/(Пиксели*Кадры) : 0.375
Размер потока : 12,3 Гбайт (98%)
Заголовок : Porky's_1981_BDRemux_RGTru_cw
Библиотека кодирования : x265 2.8+74-fd517ae68f93:[Windows][GCC 7.3.0][64 bit] 8bit
Настройки программы : cpuid=1049583 / frame-threads=9 / wpp / no-pmode / no-pme / no-psnr / no-ssim / log-level=3 / input-csp=1 / input-res=1920x1036 / interlace=0 / total-frames=0 / level-idc=51 / high-tier=1 / uhd-bd=0 / ref=5 / allow-non-conformance / no-repeat-headers / annexb / no-aud / no-hrd / info / hash=0 / no-temporal-layers / open-gop / min-keyint=24 / keyint=240 / gop-lookahead=0 / bframes=8 / b-adapt=2 / b-pyramid / bframe-bias=0 / rc-lookahead=60 / lookahead-slices=6 / scenecut=40 / radl=0 / no-intra-refresh / ctu=64 / min-cu-size=8 / no-rect / no-amp / max-tu-size=32 / tu-inter-depth=1 / tu-intra-depth=1 / limit-tu=0 / rdoq-level=0 / dynamic-rd=0.00 / no-ssim-rd / signhide / no-tskip / nr-intra=0 / nr-inter=0 / no-constrained-intra / strong-intra-smoothing / max-merge=2 / limit-refs=3 / no-limit-modes / me=3 / subme=7 / merange=92 / temporal-mvp / weightp / weightb / no-analyze-src-pics / deblock=-3:-3 / sao / no-sao-non-deblock / rd=3 / no-early-skip / rskip / no-fast-intra / no-tskip-fast / no-cu-lossless / no-b-intra / no-splitrd-skip / rdpenalty=0 / psy-rd=2.00 / psy-rdoq=0.00 / no-rd-refine / no-lossless / cbqpoffs=0 / crqpoffs=0 / rc=crf / crf=19.0 / qcomp=0.60 / qpstep=4 / stats-write=0 / stats-read=0 / vbv-maxrate=160000 / vbv-bufsize=160000 / vbv-init=0.9 / crf-max=19.0 / crf-min=0.0 / ipratio=1.40 / pbratio=1.30 / aq-mode=1 / aq-strength=1.00 / cutree / zone-count=0 / no-strict-cbr / qg-size=32 / no-rc-grain / qpmax=69 / qpmin=0 / no-const-vbv / sar=1 / overscan=0 / videoformat=5 / range=0 / colorprim=2 / transfer=2 / colormatrix=2 / chromaloc=0 / display-window=0 / max-cll=0,0 / min-luma=0 / max-luma=255 / log2-max-poc-lsb=8 / vui-timing-info / vui-hrd-info / slices=1 / no-opt-qp-pps / no-opt-ref-list-length-pps / no-multi-pass-opt-rps / scenecut-bias=0.05 / no-opt-cu-delta-qp / no-aq-motion / no-hdr / no-hdr-opt / no-dhdr10-opt / no-idr-recovery-sei / analysis-reuse-level=5 / scale-factor=0 / refine-intra=0 / refine-inter=0 / refine-mv=0 / no-limit-sao / ctu-info=0 / no-lowpass-dct / refine-mv-type=0 / copy-pic=1 / max-ausize-factor=1.0 / no-dynamic-refine / no-single-sei
Язык : English
Default : Да
Forced : Нет

Аудио #1
Идентификатор : 2
Формат : AC-3
Формат/Информация : Audio Coding 3
Идентификатор кодека : A_AC3
Продолжительность : 1 ч. 38 м.
Вид битрейта : Постоянный
Битрейт : 192 Кбит/сек
Каналы : 2 канала
Расположение каналов : Front: L R
Частота : 48,0 КГц
Частота кадров : 31,250 кадров/сек (1536 SPF)
Битовая глубина : 16 бит
Метод сжатия : С потерями
Размер потока : 135 Мбайт (1%)
Заголовок : AVO Gavrilov
Язык : Russian
ServiceKind/String : Complete Main
Default : Нет
Forced : Нет

Аудио #2
Идентификатор : 3
Формат : AC-3
Формат/Информация : Audio Coding 3
Идентификатор кодека : A_AC3
Продолжительность : 1 ч. 38 м.
Вид битрейта : Постоянный
Битрейт : 192 Кбит/сек
Каналы : 2 канала
Расположение каналов : Front: L R
Частота : 48,0 КГц
Частота кадров : 31,250 кадров/сек (1536 SPF)
Битовая глубина : 16 бит
Метод сжатия : С потерями
Размер потока : 135 Мбайт (1%)
Заголовок : AVO Zhivov
Язык : Russian
ServiceKind/String : Complete Main
Default : Нет
Forced : Нет

Меню
00:00:00.000 : :Chapter 01
00:04:04.994 : :Chapter 02
00:08:30.551 : :Chapter 03
00:10:36.260 : :Chapter 04
00:14:40.504 : :Chapter 05
00:18:37.449 : :Chapter 06
00:21:56.565 : :Chapter 07
00:25:25.565 : :Chapter 08
00:26:51.192 : :Chapter 09
00:30:15.522 : :Chapter 10
00:36:36.986 : :Chapter 11
00:39:01.589 : :Chapter 12
00:41:52.718 : :Chapter 13
00:44:22.201 : :Chapter 14
00:48:47.132 : :Chapter 15
00:50:30.819 : :Chapter 16
00:53:31.791 : :Chapter 17
00:55:58.063 : :Chapter 18
00:57:23.022 : :Chapter 19
01:02:37.128 : :Chapter 20
01:07:12.737 : :Chapter 21
01:12:01.608 : :Chapter 22
01:16:19.241 : :Chapter 23
01:19:25.886 : :Chapter 24
01:24:34.194 : :Chapter 25
01:27:36.542 : :Chapter 26
01:30:51.696 : :Chapter 27
01:34:49.015 : :Chapter 28
01:38:26.692 : :Chapter 29

piratbit.pw



Скачать Порки через торрент https://a.radikal.ru/a27/1811/13/44532ded1517.jpg Скачать фильм Порки через торрент бесплантно в хорошем качестве Описание: Невозможно даже представить какие нелепые идеи могут прийти в голову американским подросткам в период полового созревания. Они ... 7.8 10 4
Info! Золотая раздача, скачанное не засчитывается.
Торрент: Зарегистрирован [2018-11-24 16:20] · скачан: 12 раз
Статус: √ проверено
Размер: 12.57 GB
Как cкачать? Как скачать Порки через торрент | UTorrent

28-11-2019 20:33  

Отключить всю рекламу на сайте


24-11-2018 16:45 Порки Скачать торрент  

Топик был перенесен из форума Фильмы [HD 720p, 1080p] (Хороший звук DUB, MVO) в форум Фильмы с авторской озвучкой


-Lexx-piratbit.pw



    Дорогой пользователь! Огромная просьба, поблагодарите релизера, оцените раздачу и оставьте свои комментарий, если Вы скачали Порки через торрент бесплатно! Внесите свою лепту в развитие PiratBit!
    Комментировать посты могут только пользователи прошедшие не сложную регистрацию
    Показать сообщения:    

    Порки через торрент
    Скачать бесплатно Порки
    Порки скачать торрент
    Порки смотреть онлайн
    Cкачать фильм Порки бесплатно
    Порки скачать торрент в хорошем качестве
    Порки смотреть онлайн бесплатно в хорошем качестве


    Вы не можете начинать темы
    Вы не можете отвечать на сообщения
    Вы не можете редактировать свои сообщения
    Вы не можете удалять свои сообщения
    Вы не можете голосовать в опросах
    Вы не можете прикреплять файлы к сообщениям
    Вы можете скачивать файлы