1 сезон

1 сезон

iTunes

1

КиноПоиск HD

Кинопоиск HD

iTunes

13

1 сезон

RePack

30

Новинка

ВАЖНО

ИГРА 18+

pack

RePack

MK11
pack

Легкие деньги

RePack

jed

RePack

fifa19

RePack

RDR2

RePack

NEED FOR SPEED™ PAYBACK

4 сезон

9 сезон

Бесстыжие 9 сезон

Все сериалы

все сериалы на PB.wtf

RePack

FAR CRY 5
  
Magnet ссылка

Охота на воров / Den of Thieves (Кристиан Гьюдгэст / Christian Gudegast) [2018, боевик, триллер, драма, BDRip-AVC] [UNRATED] [AVO] (Андрей Гаврилов) piratbit.pw

Охота на воров через торрент piratbit.pw

Размер: 2.47 GB | Добавлен: 2 года 4 мес. назад | Торрент скачан:40 раз
Скачать  

24-11-2018 09:10 Охота на воров Скачать торрент  

Охота на воров / Den of Thieves
Страна: США
Жанр: боевик, триллер, драма, криминал, детектив
Год выпуска: 2018
Продолжительность: 02:28:49
Перевод: Авторский (одноголосый закадровый) - Андрей Гаврилов

Режиссер: Кристиан Гьюдгэст / Christian Gudegast

В ролях: Джерард Батлер ('Big Nick' O'Brien), Пабло Шрайбер (Ray Merrimen), О’Ши Джексон мл. (Donnie Wilson), Фифти Сент (Enson Levoux), Медоу Уильямс (Holly), Морис Комт (Benny «Borracho» Magalon), Брайан Ван Холт (Murph Connors), Ивэн Джонс (Bo «Bosco» Ostroman), Мо (Gus Henderson), Каиви Лайман («Tony Z» Zapata), Доун Оливери (Debbie O'Brien), Эрик Браден (Ziggy Zerhusen)

Описание: Большой Ник - начальник элитного подразделения полиции Лос-Анджелеса - ежедневно доказывает, что его команда более крутая, чем те, на кого они охотятся. Когда коп узнает, что легендарный и неуловимый вор планирует дерзкое ограбление Федерального резервного банка США, то он решает помешать этому любым способом. И играть по правилам он не привык.

rating

Качество: BDRip-AVC
Формат видео: MKV
Видео: MPEG-4 AVC, 1988 Kбит/с, 1024x426
Аудио: 48 kHz, AC3 Dolby Digital, 3/2 (L,C,R,l,r) + LFE ch, ~384 kbps
General
Unique ID : 205009958291937730194476195224839407242 (0x9A3B7B5470A3B4F699DA802DE352468A)
Complete name : E:\Охота на воров (Гаврилов).mkv
Format : Matroska
Format version : Version 2
File size : 2.47 GiB
Duration : 2 h 28 min
Overall bit rate : 2 371 kb/s
Movie name : Den of Thieves 2018 from ExKinoRay
Encoded date : UTC 2018-11-20 16:16:36
Writing application : mkvmerge v4.2.0 ('No Talking') сборка от Jul 28 2010 18:38:23
Writing library : libebml v1.0.0 + libmatroska v1.0.0

Video
ID : 1
Format : AVC
Format/Info : Advanced Video Codec
Format profile : High@L4.1
Format settings : CABAC / 11 Ref Frames
Format settings, CABAC : Yes
Format settings, RefFrames : 11 frames
Muxing mode : Header stripping
Codec ID : V_MPEG4/ISO/AVC
Duration : 2 h 28 min
Bit rate : 1 988 kb/s
Width : 1 024 pixels
Height : 426 pixels
Display aspect ratio : 2.40:1
Frame rate mode : Constant
Frame rate : 23.976 (23976/1000) FPS
Color space : YUV
Chroma subsampling : 4:2:0
Bit depth : 8 bits
Scan type : Progressive
Bits/(Pixel*Frame) : 0.190
Stream size : 2.02 GiB (82%)
Title : Enigma
Writing library : x264 core 152 r2851 ba24899
Encoding settings : cabac=1 / ref=11 / deblock=1:-2:-2 / analyse=0x3:0x113 / me=umh / subme=10 / psy=1 / psy_rd=1.05:0.10 / mixed_ref=1 / me_range=32 / chroma_me=1 / trellis=2 / 8x8dct=1 / cqm=0 / deadzone=21,11 / fast_pskip=0 / chroma_qp_offset=-3 / threads=12 / lookahead_threads=3 / sliced_threads=0 / nr=0 / decimate=0 / interlaced=0 / bluray_compat=0 / constrained_intra=0 / bframes=14 / b_pyramid=2 / b_adapt=2 / b_bias=0 / direct=3 / weightb=1 / open_gop=0 / weightp=2 / keyint=240 / keyint_min=23 / scenecut=40 / intra_refresh=0 / rc_lookahead=40 / rc=2pass / mbtree=0 / bitrate=1988 / ratetol=1.0 / qcomp=0.60 / qpmin=0 / qpmax=51 / qpstep=4 / cplxblur=20.0 / qblur=0.5 / vbv_maxrate=50000 / vbv_bufsize=62500 / nal_hrd=none / filler=0 / ip_ratio=1.40 / pb_ratio=1.30 / aq=1:0.90
Language : English
Default : Yes
Forced : No
Color range : Limited
Color primaries : BT.709
Transfer characteristics : BT.709
Matrix coefficients : BT.709

Audio
ID : 2
Format : AC-3
Format/Info : Audio Coding 3
Format settings, Endianness : Big
Muxing mode : Header stripping
Codec ID : A_AC3
Duration : 2 h 28 min
Bit rate mode : Constant
Bit rate : 384 kb/s
Channel(s) : 6 channels
Channel positions : Front: L C R, Side: L R, LFE
Sampling rate : 48.0 kHz
Frame rate : 31.250 FPS (1536 SPF)
Bit depth : 16 bits
Compression mode : Lossy
Stream size : 409 MiB (16%)
Service kind : Complete Main
Default : Yes
Forced : No

Menu
00:00:00.000 : en:Chapter 01
00:09:38.869 : en:Chapter 02
00:17:31.967 : en:Chapter 03
00:24:03.733 : en:Chapter 04
00:30:30.411 : en:Chapter 05
00:43:48.083 : en:Chapter 06
00:49:54.992 : en:Chapter 07
00:58:58.284 : en:Chapter 08
01:05:05.109 : en:Chapter 09
01:10:42.780 : en:Chapter 10
01:16:21.368 : en:Chapter 11
01:25:11.481 : en:Chapter 12
01:29:54.514 : en:Chapter 13
01:35:50.870 : en:Chapter 14
01:40:39.908 : en:Chapter 15
01:50:22.532 : en:Chapter 16
01:58:30.728 : en:Chapter 17
02:04:59.909 : en:Chapter 18
02:14:27.976 : en:Chapter 19
02:22:15.318 : en:Chapter 20
скриншот   скриншот   скриншот  
piratbit.pw



Скачать Охота на воров через торрент http://i104.fastpic.ru/big/2018/0414/51/e86ee9897be8308140e43ba03a9c5b51.jpg Скачать фильм Охота на воров через торрент бесплантно в хорошем качестве Описание: Большой Ник - начальник элитного подразделения полиции Лос-Анджелеса - ежедневно доказывает, что его команда более крутая, чем ... 10 10 2
Торрент: Зарегистрирован [2018-11-24 09:10] · скачан: 40 раз
Статус: √ проверено
Размер: 2.47 GB
Как cкачать? Как скачать Охота на воров через торрент | UTorrent

% Раздел Тема Автор DL S | L
Фильмы (HD 720p, 1080p) (48-60 fps) [ 5.35 GB ] Охота на воров / Den of Thieves [2018 BDRip - HEVC 1080p 10 bit 60 FPS AVO Яроцкий] dd2d3 Скачать
2 | 0
Фильмы с авторской озвучкой [ 2.63 GB ] Охота на воров / Вертеп разбойников / Логово грабителей / Den of Thieves [2018 BDRip] [Расширенная версия / Unrated Cut] 2x[AVO] killermax2013 Скачать
1 | 0
Фильмы (Blu-ray, BD-Remux, HDDVD) [ 33.81 GB ] Охота на воров / Den of Thieves [2018 BD Remux 1080p] DUB [] [Театральная версия] bober100 Скачать
3 | 0
Фильмы 2018 [DVDrip, WEB-DLRip, HDrip] (DUB, MVO) [ 2.16 GB ] Охота на воров / Den of Thieves [2018 BDRip-AVC] - [] - ExKinoRay Enigma2010 Скачать
1 | 0
Фильмы 2018 [DVDrip, WEB-DLRip, HDrip] (DUB, MVO) [ 2.18 GB ] Охота на воров / Den of Thieves [2018 BDRip] - [] Twi7ter Скачать
1 | 0
Фильмы (Blu-ray, BD-Remux, HDDVD) [ 30.18 GB ] Охота на воров / Den of Thieves [2018 Blu-ray 1080p ] DUB [] [Театральная версия] bober100 Скачать
1 | 0
Фильмы 2018 [DVDrip, WEB-DLRip, HDrip] (DUB, MVO) [ 2.18 GB ] Охота на воров / Den of Thieves [2018 BDRip] [Театральная версия] DUB [ BD RUS] bober100 Скачать
1 | 0

28-11-2019 20:33  

Отключить всю рекламу на сайте


    Дорогой пользователь! Огромная просьба, поблагодарите релизера, оцените раздачу и оставьте свои комментарий, если Вы скачали Охота на воров через торрент бесплатно! Внесите свою лепту в развитие PiratBit!
    Комментировать посты могут только пользователи прошедшие не сложную регистрацию
    Показать сообщения:    

    Охота на воров через торрент
    Скачать бесплатно Охота на воров
    Охота на воров скачать торрент
    Охота на воров смотреть онлайн
    Cкачать фильм Охота на воров бесплатно
    Охота на воров скачать торрент в хорошем качестве
    Охота на воров смотреть онлайн бесплатно в хорошем качестве


    Вы не можете начинать темы
    Вы не можете отвечать на сообщения
    Вы не можете редактировать свои сообщения
    Вы не можете удалять свои сообщения
    Вы не можете голосовать в опросах
    Вы не можете прикреплять файлы к сообщениям
    Вы можете скачивать файлы