Ссылка на приватное зеркало всего за 1$. Внимание количество ограничено!!!

iTunes

iTunes

iTunes

1

iTunes

iTunes

iTunes

iTunes

iTunes

30
pack

Новость дня

ВАЖНО

!!Акция!!

Alien_RageХит недели

RePack

Resident Evil 21

ИГРА 18+

pack

RePack

jed

!!Акция!!

Alien_Rage

RePack

fifa19

RePack

Assassins Creed: Odyssey

RePack

NEED FOR SPEED™ PAYBACK

4 сезон

9 сезон

Бесстыжие 9 сезон

Все сериалы

все сериалы на PB.wtf

RePack

FAR CRY 5
  

Алькатрас / Alcatraz (Эндрю Джонс / Andrew Jones) [2018, боевик, криминал, WEB-DLRip-AVC] DVO [HiWay Grope] piratbit.pw

Алькатрас через торрент piratbit.pw

Размер: 1.49 GB | Добавлен: 1 год 4 мес. назад | Торрент скачан:345 раз
Скачать  

17-11-2018 17:12 Алькатрас Скачать торрент  

Алькатрас
Alcatraz

Страна: Великобритания, США
Жанр: боевик, криминал

Год выпуска: 2018
Продолжительность: 01:27:08

Перевод: Любительский (двухголосый, закадровый) [HiWay Grope]
Субтитры: нет
Оригинальная аудиодорожка: английский

Режиссер: Эндрю Джонс / Andrew Jones

В ролях: Гарет Лоуренс, Ли Бэйн, Дерек Нельсон, Харриет Рис, Марк Гомер, Трэвис Бут-Миллард, Патрик О’Доннелл, Эрик Хейден, Николас Энскомб, Райан Майклс

Описание:
Молодой парень Клэренс попадает в известную своей строгостью тюрьму-крепость Алькатрас. Там он становится участником одной обособленной группы заключенных, во главе которой стоит жестокий убийца и бандит. Все вместе они решают попытать удачу и сбежать с этого проклятого острова.



Релиз:

Автор рипа: stalkerok
Без рекламы!

Сэмпл

Качество видео: WEB-DLRip-AVC [Alcatraz.2018.1080p.WEB-DL.H264.AC3-EVO]
Формат видео: MKV
Видео кодек: AVC
Аудио кодек: AC3
Видео: AVC, 1615 Кбит/сек, 1104x460 (2.40:1), 23,976 кадр/сек
Аудио №1: AC3, 448 Кбит/сек, 48 КГц, 5.1 - русский
Аудио №2: AC3, 384 Кбит/сек, 48 КГц, 5.1 - английский
Навигация по главам: есть
---[Information] [17.11.2018 19:25:24] x264 [info]: frame I:860 Avg QP:15.27 size: 52394
---[Information] [17.11.2018 19:25:24] x264 [info]: frame P:29096 Avg QP:16.81 size: 18803
---[Information] [17.11.2018 19:25:24] x264 [info]: frame B:95360 Avg QP:19.35 size: 4862

General
Unique ID : 337023285332266089296990266133809084680 (0xFD8C52DF2A11B0E2840E78F6AE0A3908)
Complete name : O:\Temp\Alcatraz\Alcatraz.2018.WEB-DLRip.x264.Rus.Eng.stalkerok.New-Team.mkv
Format : Matroska
Format version : Version 4 / Version 2
File size : 1.49 GiB
Duration : 1 h 27 min
Overall bit rate : 2 449 kb/s
Movie name : Alcatraz (2018) | Rip by stalkerok
Encoded date : UTC 2018-11-17 16:38:25
Writing application : mkvmerge v28.2.0 ('The Awakening') 64-bit
Writing library : libebml v1.3.6 + libmatroska v1.4.9

Video
ID : 1
Format : AVC
Format/Info : Advanced Video Codec
Format profile : High@L4.1
Format settings, CABAC : Yes
Format settings, ReFrames : 12 frames
Codec ID : V_MPEG4/ISO/AVC
Duration : 1 h 27 min
Bit rate : 1 616 kb/s
Width : 1 104 pixels
Height : 460 pixels
Display aspect ratio : 2.40:1
Frame rate mode : Constant
Frame rate : 23.976 FPS
Color space : YUV
Chroma subsampling : 4:2:0
Bit depth : 8 bits
Scan type : Progressive
Bits/(Pixel*Frame) : 0.133
Stream size : 1 007 MiB (66%)
Title : Alcatraz (2018) | Rip by stalkerok
Writing library : x264 core 157 r2932 303c484
Encoding settings : cabac=1 / ref=12 / deblock=1:-3:-2 / analyse=0x3:0x133 / me=umh / subme=10 / psy=1 / psy_rd=1.00:0.00 / mixed_ref=1 / me_range=32 / chroma_me=1 / trellis=2 / 8x8dct=1 / cqm=0 / deadzone=21,11 / fast_pskip=0 / chroma_qp_offset=-2 / threads=12 / lookahead_threads=3 / sliced_threads=0 / nr=0 / decimate=1 / interlaced=0 / bluray_compat=0 / constrained_intra=0 / bframes=14 / b_pyramid=2 / b_adapt=2 / b_bias=0 / direct=3 / weightb=1 / open_gop=0 / weightp=2 / keyint=240 / keyint_min=23 / scenecut=40 / intra_refresh=0 / rc_lookahead=60 / rc=crf / mbtree=0 / crf=18.0 / qcomp=0.65 / qpmin=0 / qpmax=69 / qpstep=4 / vbv_maxrate=50000 / vbv_bufsize=62500 / crf_max=0.0 / nal_hrd=none / filler=0 / ip_ratio=1.40 / pb_ratio=1.30 / aq=3:0.80 / zones=118483,125315,q=32
Default : Yes
Forced : No

Audio #1
ID : 2
Format : AC-3
Format/Info : Audio Coding 3
Mode extension : CM (complete main)
Format settings, Endianness : Big
Codec ID : A_AC3
Duration : 1 h 27 min
Bit rate mode : Constant
Bit rate : 448 kb/s
Channel(s) : 6 channels
Channel positions : Front: L C R, Side: L R, LFE
Sampling rate : 48.0 kHz
Frame rate : 31.250 FPS (1536 spf)
Compression mode : Lossy
Stream size : 279 MiB (18%)
Title : HiWayGrope
Language : Russian
Default : Yes
Forced : No

Audio #2
ID : 3
Format : AC-3
Format/Info : Audio Coding 3
Mode extension : CM (complete main)
Format settings, Endianness : Big
Codec ID : A_AC3
Duration : 1 h 27 min
Bit rate mode : Constant
Bit rate : 384 kb/s
Channel(s) : 6 channels
Channel positions : Front: L C R, Side: L R, LFE
Sampling rate : 48.0 kHz
Frame rate : 31.250 FPS (1536 spf)
Compression mode : Lossy
Stream size : 239 MiB (16%)
Language : English
Default : No
Forced : No

Menu
00:00:00.000 : en:1
00:04:33.857 : en:2
00:10:34.634 : en:3
00:15:27.927 : en:4
00:23:21.066 : en:5
00:28:32.000 : en:6
00:33:02.145 : en:7
00:39:48.050 : en:8
00:44:44.930 : en:9
00:49:06.982 : en:10
00:54:47.155 : en:11
01:00:41.383 : en:12
01:07:31.709 : en:13
01:11:09.634 : en:14
01:16:22.404 : en:15
01:21:57.155 : en:16
piratbit.pw



Скачать Алькатрас через торрент http://i6.imageban.ru/out/2017/09/18/2ff75c0c358795c5946784cc1680714d.png Скачать фильм Алькатрас через торрент бесплантно в хорошем качестве Описание:Молодой парень Клэренс попадает в известную своей строгостью тюрьму-крепость Алькатрас. Там он становится участником одной ... 10 10 4
Info! Золотая раздача, скачанное не засчитывается.
Торрент: Зарегистрирован [2018-11-17 17:12] · скачан: 345 раз
Статус: T временная
Размер: 1.49 GB
Как cкачать? Как скачать Алькатрас через торрент | qTorrent

% Раздел Тема Автор DL S | L
Зарубежные сериалы [ 19.25 GB ] Алькатрас / Alcatraz[S01] [2011 WEB-DLRip 720p ] ~Relizer~ Скачать
1 | 2
Информационно-аналитические и общественно-политические передачи [ 1.45 GB ] Алькатрас. В поисках правды / Alcatraz. Search for the Truth [2015 документальный история HDTVRip] [DVO] killermax2013 Скачать
1 | 0
T Фильмы (мультфильмы) cо спонсором показа (Новинки AVI/MKV) [ 1.3 GB ] Алькатрас / Alcatraz [2018 WEB-DLRip Любительский ] oleg8 Скачать
2 | 0
T Фильмы (WEB-DL 720p, 1080p) [ 3.3 GB ] Алькатрас / Alcatraz [2018 WEB-DL 1080p] DVO [HiWay Grope] sokol_ok Скачать
1 | 0
T Фильмы (мультфильмы) cо спонсором показа (Новинки AVI/MKV) [ 3.19 GB ] Алькатрас / Alcatraz [2018 WEB-DL 720p] MVO [@MUZOBOZ@] bober100 Скачать
1 | 0
T Фильмы (мультфильмы) cо спонсором показа (Новинки AVI/MKV) [ 3.55 GB ] Алькатрас / Alcatraz [2018 WEB-DL 1080p] MVO [@MUZOBOZ@] bober100 Скачать
1 | 0
Фильмы до 2000 г. [ 1.46 GB ] Любитель птиц из Алькатраса / Birdman of Alcatraz [1962 биографический HDRip] [MVO] killermax2013 Скачать
1 | 0

28-11-2019 20:33  

Отключить всю рекламу на сайте

    Дорогой пользователь! Огромная просьба, поблагодарите релизера, оцените раздачу и оставьте свои комментарий, если Вы скачали Алькатрас через торрент бесплатно! Внесите свою лепту в развитие PiratBit!
    Комментировать посты могут только пользователи прошедшие не сложную регистрацию
    Показать сообщения:    

    Алькатрас через торрент
    Скачать бесплатно Алькатрас
    Алькатрас скачать торрент
    Алькатрас смотреть онлайн
    Cкачать фильм Алькатрас бесплатно
    Алькатрас скачать торрент в хорошем качестве
    Алькатрас смотреть онлайн бесплатно в хорошем качестве


    Вы не можете начинать темы
    Вы не можете отвечать на сообщения
    Вы не можете редактировать свои сообщения
    Вы не можете удалять свои сообщения
    Вы не можете голосовать в опросах
    Вы не можете прикреплять файлы к сообщениям
    Вы можете скачивать файлы