Ссылка на приватное зеркало нашего сайта всего за 1$. Внимание количество ограничено!!!

2 сезон

iTunes

iTunes

1

iTunes

iTunes

iTunes

WEBRip

iTunes

30
pack

Новость дня

ВАЖНО

!!Акция!!

Alien_RageХит недели

RePack

Horizon Zero Dawn

ИГРА 18+

pack

RePack

jed

!!Акция!!

Alien_Rage

RePack

fifa19

RePack

Assassins Creed: Odyssey

RePack

NEED FOR SPEED™ PAYBACK

4 сезон

9 сезон

Бесстыжие 9 сезон

Все сериалы

все сериалы на PB.wtf

RePack

FAR CRY 5
  

На районе (Ольга Зуева) [2018, драма, WEB-DL 1080p] [iTunes] piratbit.pw

На районе через торрент piratbit.pw

Раздают: 1 [ 0 KB/s ]
Размер: 3.15 GB | Добавлен: 1 год 10 мес. назад | Торрент скачан:836 раз
Скачать  

15-11-2018 09:18 На районе Скачать торрент  

На районе

Год выпуска: 2018
Страна: Россия
Жанр: драма
Продолжительность: 01:31:26
Перевод: Не требуется [Русский] | iTunes
Режиссер: Ольга Зуева
В ролях:

Данила Козловский, Илья Маланин, Елена Оболенская, Ангелина Стречина, Ольга Зуева, Андрей Амшинский, Эдгар Гизатуллин, Александр Мизев (гость вечеринки), Владимир Хацкевич (Миша), Владимир Афанасьев (Шамиль)
Описание:
Вова и его лучший друг Киса зарабатывают деньги, занимаясь нелегальной деятельностью. Их жизнь проходит на волне веселья, в погоне за острыми ощущениями и кратковременными удовольствиями, пока очередной заказ не приводит их дружбу к главному испытанию, заставив каждого ответить на вопрос: кто ты?
Рейтинг:

Качество: WEB-DL 1080p
Формат: MKV
Видео: AVC, 1920x806 (2.40:1), 4450 kbps, 25 fps, 0,115 bpp
Аудио: русский / AC3 / 5.1 / 48 kHz / 384 kbps / |iTunes|
Навигация по главам: есть
General
Unique ID : 305066408513818241959096846382788356753 (0xE581A732C38459B545EA04DFA21DAA91)
Complete name : D:\NA_RAIONE (2018) WEB-DL 1080p.mkv
Format : Matroska
Format version : Version 4 / Version 2
File size : 3.15 GiB
Duration : 1 h 31 min
Overall bit rate : 4 933 kb/s
Movie name : NA_RAIONE (2018) WEB-DL 1080p
Encoded date : UTC 2018-11-15 07:24:00
Writing application : mkvmerge v27.0.0 ('Metropolis') 64-bit
Writing library : libebml v1.3.6 + libmatroska v1.4.9

Video
ID : 1
Format : AVC
Format/Info : Advanced Video Codec
Format profile : High@L4
Format settings, CABAC : Yes
Format settings, ReFrames : 5 frames
Codec ID : V_MPEG4/ISO/AVC
Duration : 1 h 31 min
Bit rate : 4 451 kb/s
Width : 1 920 pixels
Height : 806 pixels
Display aspect ratio : 2.40:1
Frame rate mode : Constant
Frame rate : 25.000 FPS
Color space : YUV
Chroma subsampling : 4:2:0
Bit depth : 8 bits
Scan type : Progressive
Bits/(Pixel*Frame) : 0.115
Stream size : 2.84 GiB (90%)
Title : NA_RAIONE (2018) WEB-DL 1080p
Language : English
Default : Yes
Forced : No
Color range : Limited
Color primaries : BT.709
Transfer characteristics : BT.709
Matrix coefficients : BT.709

Audio
ID : 2
Format : AC-3
Format/Info : Audio Coding 3
Mode extension : CM (complete main)
Format settings, Endianness : Big
Codec ID : A_AC3
Duration : 1 h 31 min
Bit rate mode : Constant
Bit rate : 384 kb/s
Channel(s) : 6 channels
Channel positions : Front: L C R, Side: L R, LFE
Sampling rate : 48.0 kHz
Frame rate : 31.250 FPS (1536 spf)
Compression mode : Lossy
Stream size : 251 MiB (8%)
Title : iTunes | NA_RAIONE (2018) WEB-DL 1080p
Language : Russian
Default : Yes
Forced : No

Menu
00:00:00.000 : en:Глава 1
00:05:28.720 : en:Глава 2
00:13:16.920 : en:Глава 3
00:18:23.320 : en:Глава 4
00:23:30.200 : en:Глава 5
00:30:55.280 : en:Глава 6
00:37:49.320 : en:Глава 7
00:41:40.160 : en:Глава 8
00:46:28.800 : en:Глава 9
00:50:46.319 : en:Глава 10
00:57:40.239 : en:Глава 11
01:05:04.359 : en:Глава 12
01:11:51.199 : en:Глава 13
01:17:52.359 : en:Глава 14
01:22:54.839 : en:Глава 15
скриншот   скриншот   скриншот  
piratbit.pw



Скачать На районе через торрент http://pic1.kartinco.top/images/11/pafhe.jpg Скачать фильм На районе через торрент бесплантно в хорошем качестве Описание: Вова и его лучший друг Киса зарабатывают деньги, занимаясь нелегальной деятельностью. Их жизнь проходит на волне веселья, в ... 10 10 18
Info! Золотая раздача, скачанное не засчитывается.
Торрент: Зарегистрирован [2018-11-15 09:18] · скачан: 836 раз
Статус: √ проверено
Размер: 3.15 GB
Как cкачать? Как скачать На районе через торрент | qTorrent

% Раздел Тема Автор DL S | L
Наши сериалы [ 20.53 GB ] Адмиралы района / Сезон: 1 / Серии: 1-16 из 16 [2020 WEBRip 720p] bober100 Скачать
1 | 0
Наши сериалы [ 12.19 GB ] Адмиралы района / Сезон: 1 / Серии: 1-16 из 16 [2020 WEBRip-AVC] bober100 Скачать
1 | 0
Наши сериалы [ 10.02 GB ] Адмиралы района / Сезон: 1 / Серии: 1-16 из 16 [2020 WEBRip] bober100 Скачать
1 | 0
Наши сериалы [ 34.37 GB ] Адмиралы района / Сезон: 1 / Серии: 1-16 из 16 [2020 WEBRip 1080p] bober100 Скачать
2 | 0
Наши сериалы [ 9.43 GB ] Адмиралы района / Серии: 1-16 из 16 [2020 SATRip-AVC] aleksan55 Скачать
3 | 0
Наши сериалы [ 10.19 GB ] Адмиралы района / Сезон: 1 / Серии: 1-16 из 16 [2020 SATRip] bober100 Скачать
5 | 1
Фильмы (HD 720p, 1080p) (48-60 fps) [ 12.99 GB ] Район №9 / District 9 [2009 Новая Зеландия ЮАР BDRip 1080p / 60 FPS ] Tiberiumsun69 Скачать
1 | 0

28-11-2019 20:33  

Отключить всю рекламу на сайте

16-11-2018 01:34 На районе Скачать торрент  

Спасибо за раздачу,фильм - говно...лучше раздайте титаник,красотку и форреста гампа...и верните мои гигабайты... piratbit.pw



16-11-2018 16:35 На районе Скачать торрент  

О! Володя Афонасьев! Круть! Качаю!piratbit.pw



    Дорогой пользователь! Огромная просьба, поблагодарите релизера, оцените раздачу и оставьте свои комментарий, если Вы скачали На районе через торрент бесплатно! Внесите свою лепту в развитие PiratBit!
    Комментировать посты могут только пользователи прошедшие не сложную регистрацию
    Показать сообщения:    

    На районе через торрент
    Скачать бесплатно На районе
    На районе скачать торрент
    На районе смотреть онлайн
    Cкачать фильм На районе бесплатно
    На районе скачать торрент в хорошем качестве
    На районе смотреть онлайн бесплатно в хорошем качестве


    Вы не можете начинать темы
    Вы не можете отвечать на сообщения
    Вы не можете редактировать свои сообщения
    Вы не можете удалять свои сообщения
    Вы не можете голосовать в опросах
    Вы не можете прикреплять файлы к сообщениям
    Вы можете скачивать файлы