Marvel's Avengers Deluxe Edition (супер цена) 159р. Внимание количество ограничено!!!

2 сезон

iTunes

iTunes

1

iTunes

iTunes

iTunes

WEBRip

iTunes

30
pack

Новость дня

ВАЖНО

!!Акция!!

Alien_RageХит недели

RePack

Horizon Zero Dawn

ИГРА 18+

pack

RePack

jed

!!Акция!!

Alien_Rage

RePack

fifa19

RePack

Assassins Creed: Odyssey

RePack

NEED FOR SPEED™ PAYBACK

4 сезон

9 сезон

Бесстыжие 9 сезон

Все сериалы

все сериалы на PB.wtf

RePack

FAR CRY 5
  

Монстры на каникулах 3: Море зовёт / Hotel Transylvania 3: Summer Vacation (Генндий Тартаковский) [2018, мультфильм, фэнтези, комедия, UHD BDRemux 2160p] DUB (rus, ukr) [Лицензия] piratbit.pw

Монстры на каникулах 3: Море зовёт через торрент piratbit.pw

Размер: 38.62 GB | Добавлен: 1 год 10 мес. назад | Торрент скачан:24 раза
Скачать  

10-11-2018 11:36 Монстры на каникулах 3: Море зовёт Скачать торрент  

Монстры на каникулах 3: Море зовёт / Hotel Transylvania 3: Summer Vacation«Любишь ужасы? Проведи отпуск с семьёй!»
Год выпуска: 2018
Страна: США
Жанр: мультфильм, фэнтези, комедия, приключения, семейный
Продолжительность: 01:37:19
Перевод: Дублированный [Лицензия]
Субтитры: Русские, английские, украинские
Режиссер: Генндий Тартаковский
В ролях:

Адам Сэндлер (Dracula, озвучка), Энди Сэмберг (Johnny, озвучка), Селена Гомес (Mavis, озвучка), Кевин Джеймс (Frank, озвучка), Фрэн Дрешер (Eunice, озвучка), Стив Бушеми (Wayne, озвучка), Молли Шеннон (Wanda, озвучка), Дэвид Спейд (Griffin, озвучка), Кигэн-Майкл Ки (Murray, озвучка), Джим Гэффиган (Van Helsing, озвучка), Кэтрин Хан (Ericka, озвучка), Эшер Блинкофф (Dennis, озвучка)
Описание:
На этот раз Дракула вместе со своими друзьями отправляется в круиз на шикарном лайнере. Развлечения там на любой вкус: от монстробаскетбола и экзотических экскурсий, до лунных ванн. Неожиданно Дракула влюбляется в капитана корабля - загадочную и прекрасную Эрику, и его дочка Мэвис понимает, что поездка может превратиться в кошмар: ведь Эрика хранит ужасный секрет, который ставит под угрозу существование всех монстров!
Рейтинг:

MPAA: PG - Рекомендуется присутствие родителей
Качество: UHD BDRemux 2160p
Формат: MKV
Видео: HEVC, HDR, 51600 Кбит/с, 3840x2160
Аудио 1: AC3, 6 ch, 640 Кбит/с |RUS Лицензия|
Аудио 2: AC3, 6 ch, 640 Кбит/c |UKR Лицензия|
Аудио 3: AC3, 6 ch, 640 Кбит/с |ENG Original|
Аудио 4: TrueHD, 8 ch, 3186 Кбит/с |ENG Original|
Навигация по главам: есть
General
Unique ID : 271762306821950879949211256746436342423 (0xCC738435D50D2E39D1E1F8232AD23297)
Complete name : D:\Video111\Hotel.Transylvania.3.Summer.Vacation.2018.BDREMUX.2160p.HDR.selezen.mkv
Format : Matroska
Format version : Version 4
File size : 38.6 GiB
Duration : 1 h 37 min
Overall bit rate mode : Variable
Overall bit rate : 56.8 Mb/s
Movie name : Hotel Transylvania 3: Summer Vacation 4K (2018) from селезень
Encoded date : UTC 2018-11-10 10:58:14
Writing application : mkvmerge v28.2.0 ('The Awakening') 64-bit
Writing library : libebml v1.3.6 + libmatroska v1.4.9

Video
ID : 1
Format : HEVC
Format/Info : High Efficiency Video Coding
Commercial name : HDR10
Format profile : Main 10@L5.1@High
Codec ID : V_MPEGH/ISO/HEVC
Duration : 1 h 37 min
Bit rate : 51.6 Mb/s
Width : 3 840 pixels
Height : 2 160 pixels
Display aspect ratio : 16:9
Frame rate mode : Constant
Frame rate : 23.976 (24000/1001) FPS
Color space : YUV
Chroma subsampling : 4:2:0 (Type 2)
Bit depth : 10 bits
Bits/(Pixel*Frame) : 0.259
Stream size : 35.1 GiB (91%)
Language : English
Default : Yes
Forced : No
Color range : Limited
Color primaries : BT.2020
Transfer characteristics : PQ
Matrix coefficients : BT.2020 non-constant
Mastering display color pri : Display P3
Mastering display luminance : min: 0.0001 cd/m2, max: 1000 cd/m2
Maximum Content Light Level : 1000 cd/m2
Maximum Frame-Average Light : 1000 cd/m2

Audio #1
ID : 2
Format : AC-3
Format/Info : Audio Coding 3
Commercial name : Dolby Digital
Codec ID : A_AC3
Duration : 1 h 37 min
Bit rate mode : Constant
Bit rate : 640 kb/s
Channel(s) : 6 channels
Channel layout : L R C LFE Ls Rs
Sampling rate : 48.0 kHz
Frame rate : 31.250 FPS (1536 SPF)
Bit depth : 16 bits
Compression mode : Lossy
Stream size : 446 MiB (1%)
Title : Dub [License]
Language : Russian
Service kind : Complete Main
Default : Yes
Forced : Yes

Audio #2
ID : 3
Format : AC-3
Format/Info : Audio Coding 3
Commercial name : Dolby Digital
Codec ID : A_AC3
Duration : 1 h 37 min
Bit rate mode : Constant
Bit rate : 640 kb/s
Channel(s) : 6 channels
Channel layout : L R C LFE Ls Rs
Sampling rate : 48.0 kHz
Frame rate : 31.250 FPS (1536 SPF)
Bit depth : 16 bits
Compression mode : Lossy
Stream size : 446 MiB (1%)
Title : Dub [License]
Language : Ukrainian
Service kind : Complete Main
Default : No
Forced : No

Audio #3
ID : 4
Format : MLP FBA 16-ch
Format/Info : Meridian Lossless Packing FBA with 16-channel presentation
Commercial name : Dolby TrueHD with Dolby Atmos
Codec ID : A_TRUEHD
Duration : 1 h 37 min
Bit rate mode : Variable
Bit rate : 3 186 kb/s
Maximum bit rate : 4 224 kb/s
Channel(s) : 8 channels
Channel layout : L R C LFE Ls Rs Lb Rb
Sampling rate : 48.0 kHz
Frame rate : 1 200.000 FPS (40 SPF)
Compression mode : Lossless
Stream size : 2.17 GiB (6%)
Title : Original
Language : English
Default : No
Forced : No
Number of dynamic objects : 11
Bed channel count : 1 channel
Bed channel configuration : LFE

Audio #4
ID : 5
Format : AC-3
Format/Info : Audio Coding 3
Commercial name : Dolby Digital
Codec ID : A_AC3
Duration : 1 h 37 min
Bit rate mode : Constant
Bit rate : 640 kb/s
Channel(s) : 6 channels
Channel layout : L R C LFE Ls Rs
Sampling rate : 48.0 kHz
Frame rate : 31.250 FPS (1536 SPF)
Bit depth : 16 bits
Compression mode : Lossy
Stream size : 446 MiB (1%)
Language : English
Service kind : Complete Main
Default : No
Forced : No

Text #1
ID : 6
Format : UTF-8
Codec ID : S_TEXT/UTF8
Codec ID/Info : UTF-8 Plain Text
Duration : 1 h 36 min
Bit rate : 0 b/s
Count of elements : 5
Stream size : 171 Bytes (0%)
Title : Forced
Language : Russian
Default : Yes
Forced : Yes

Text #2
ID : 7
Format : UTF-8
Codec ID : S_TEXT/UTF8
Codec ID/Info : UTF-8 Plain Text
Duration : 1 h 36 min
Bit rate : 76 b/s
Count of elements : 1118
Stream size : 54.4 KiB (0%)
Title : Full
Language : Russian
Default : No
Forced : No

Text #3
ID : 8
Format : UTF-8
Codec ID : S_TEXT/UTF8
Codec ID/Info : UTF-8 Plain Text
Duration : 1 h 36 min
Bit rate : 71 b/s
Count of elements : 1118
Stream size : 50.4 KiB (0%)
Title : Full
Language : Ukrainian
Default : No
Forced : No

Text #4
ID : 9
Format : UTF-8
Codec ID : S_TEXT/UTF8
Codec ID/Info : UTF-8 Plain Text
Duration : 1 h 26 min
Bit rate : 47 b/s
Count of elements : 1098
Stream size : 30.1 KiB (0%)
Title : Full
Language : English
Default : No
Forced : No

Text #5
ID : 10
Format : UTF-8
Codec ID : S_TEXT/UTF8
Codec ID/Info : UTF-8 Plain Text
Duration : 1 h 30 min
Bit rate : 65 b/s
Count of elements : 1629
Stream size : 43.8 KiB (0%)
Title : SDH
Language : English
Default : No
Forced : No

Text #6
ID : 11
Format : UTF-8
Codec ID : S_TEXT/UTF8
Codec ID/Info : UTF-8 Plain Text
Duration : 1 h 30 min
Bit rate : 90 b/s
Count of elements : 1629
Stream size : 60.5 KiB (0%)
Title : SDH Colored
Language : English
Default : No
Forced : No

Menu
00:00:00.000 : en:00:00:00.000
00:04:28.935 : en:00:04:28.935
00:09:34.824 : en:00:09:34.824
00:16:02.044 : en:00:16:02.044
00:20:03.077 : en:00:20:03.077
00:24:34.932 : en:00:24:34.932
00:31:12.537 : en:00:31:12.537
00:36:49.207 : en:00:36:49.207
00:44:04.725 : en:00:44:04.725
00:49:57.703 : en:00:49:57.703
00:54:49.745 : en:00:54:49.745
01:00:34.881 : en:01:00:34.881
01:06:12.010 : en:01:06:12.010
01:10:32.270 : en:01:10:32.270
01:13:46.380 : en:01:13:46.380
01:24:56.550 : en:01:24:56.550
piratbit.pw



Скачать Монстры на каникулах 3: Море зовёт через торрент https://d.radikal.ru/d18/1811/79/7aa964633fb6.jpg Скачать фильм Монстры на каникулах 3: Море зовёт через торрент бесплантно в хорошем качестве Описание: На этот раз Дракула вместе со своими друзьями отправляется в круиз на шикарном лайнере. Развлечения там на любой вкус: от ... 10 10 1
Торрент: Зарегистрирован [2018-11-10 11:36] · скачан: 24 раз
Статус: √ проверено
Размер: 38.62 GB
Как cкачать? Как скачать Монстры на каникулах 3: Море зовёт через торрент | qTorrent

% Раздел Тема Автор DL S | L
Зарубежные Мультфильмы (BDRip 1080p, 720p, Blu-ray, BD-Remux) [ 13.35 GB ] Монстры на каникулах 3: Море зовёт / Hotel Transylvania 3: Summer Vacation [2018 мультфильм BDRip 1080p] DUB [] sheker187 Скачать
2 | 0
Ultra HD (UHD: 2K, 4K, 8K) [ 20.31 GB ] Монстры на каникулах 3: Море зовёт / Hotel Transylvania 3: Summer Vacation [2018 мультфильм UHD BDRip 2160p] [SDR] DUB [] sheker187 Скачать
1 | 0
Ultra HD (UHD: 2K, 4K, 8K) [ 52.24 GB ] Монстры на каникулах 3: Море зовёт / Hotel Transylvania 3: Summer Vacation [2018 мультфильм UHD Blu-ray 2160p] DUB [] sheker187 Скачать
1 | 0
Ultra HD (UHD: 2K, 4K, 8K) [ 11 GB ] Монстры на каникулах 3: Море зовёт / Hotel Transylvania 3: Summer Vacation [2018 мультфильм UHD BDRip 2160p] DUB [] sheker187 Скачать
1 | 0
Иностранные мультфильмы [ 2.19 GB ] Монстры на каникулах 3: Море зовёт / Hotel Transylvania 3: Summer Vacation [2018 мультфильм BDRip-AVC] DUB [] - ExKinoRay Enigma2010 Скачать
2 | 0
Зарубежные Мультфильмы (BDRip 1080p, 720p, Blu-ray, BD-Remux) [ 2.01 GB ] Монстры на каникулах 3: Море зовёт / Hotel Transylvania 3: Summer Vacation [2018 Мультфильм BDRip 1080p HEVC ()] Мичман37 Скачать
1 | 0
Зарубежные Мультфильмы (WEB-DL 720p, 1080p) [ 3.33 GB ] Монстры на каникулах 3: Море зовёт / Hotel Transylvania 3: Summer Vacation [2018 мультфильм WEB-DL 720p] DUB sheker187 Скачать
3 | 0

28-11-2019 20:33  

Отключить всю рекламу на сайте

    Дорогой пользователь! Огромная просьба, поблагодарите релизера, оцените раздачу и оставьте свои комментарий, если Вы скачали Монстры на каникулах 3: Море зовёт через торрент бесплатно! Внесите свою лепту в развитие PiratBit!
    Комментировать посты могут только пользователи прошедшие не сложную регистрацию
    Показать сообщения:    

    Монстры на каникулах 3: Море зовёт через торрент
    Скачать бесплатно Монстры на каникулах 3: Море зовёт
    Монстры на каникулах 3: Море зовёт скачать торрент
    Монстры на каникулах 3: Море зовёт смотреть онлайн
    Cкачать фильм Монстры на каникулах 3: Море зовёт бесплатно
    Монстры на каникулах 3: Море зовёт скачать торрент в хорошем качестве
    Монстры на каникулах 3: Море зовёт смотреть онлайн бесплатно в хорошем качестве


    Вы не можете начинать темы
    Вы не можете отвечать на сообщения
    Вы не можете редактировать свои сообщения
    Вы не можете удалять свои сообщения
    Вы не можете голосовать в опросах
    Вы не можете прикреплять файлы к сообщениям
    Вы можете скачивать файлы