Marvel's Avengers Deluxe Edition (супер цена) 159р. Внимание количество ограничено!!!

2 сезон

iTunes

iTunes

1

iTunes

iTunes

iTunes

WEBRip

iTunes

30
pack

Новость дня

ВАЖНО

!!Акция!!

Alien_RageХит недели

RePack

Horizon Zero Dawn

ИГРА 18+

pack

RePack

jed

!!Акция!!

Alien_Rage

RePack

fifa19

RePack

Assassins Creed: Odyssey

RePack

NEED FOR SPEED™ PAYBACK

4 сезон

9 сезон

Бесстыжие 9 сезон

Все сериалы

все сериалы на PB.wtf

RePack

FAR CRY 5
  

Ральф / Wreck-It Ralph (Рич Мур) [2012 г., мультфильм, фэнтези, комедия, приключения, семейный, UHD BDRemux 2160p] DUB (rus, ukr) + AVO [Ю. Сербин] piratbit.pw

Ральф через торрент piratbit.pw

Размер: 45.08 GB | Добавлен: 1 год 10 мес. назад | Торрент скачан:22 раза
Скачать  

09-11-2018 17:05 Ральф Скачать торрент  

Ральф / Wreck-It Ralph«Хорошего друга должно быть много»
Год выпуска: 2012
Страна: США, Walt Disney Animation Studios
Жанр: Мультфильм, комедия, приключения, семейный, полнометражный
Продолжительность: 01:41:15
Перевод: Дублированный, авторский
Субтитры: Русские (полные, надписи), Украинские (полные, надписи), English (Full, SDH)
Режиссер: Рич Мур
В ролях:
Джон С. Райлли, Джек МакБрайер, Джейн Линч, Сара Силверман, Брэндон Т. Джексон, Стефани Скотт, Скотт Менвилль, Скайлар Эстин, Джек Эйнджел, Джеми Элман, Джералд С. Риверз
Описание:
Ральф — второстепенный персонаж восьмибитовой компьютерной игры, и ему надоело находиться в тени главного героя, мастера на все руки Феликса, который всегда появляется, чтобы «исправить» ситуацию! После десяти лет добросовестной работы в роли злодея, в течение которых все похвалы выпадали на долю Феликса, Ральф больше не хочет быть плохим. Он решает отправиться в путешествие по аркадным играм разных жанров, чтобы доказать всем, что и он тоже может быть героем. На своем пути Ральф встречает героев разных игр — хладнокровную сержанта Калхун из игры Hero’s Duty, оберегающую планету от нашествия инопланетных захватчиков, и сладкую на вид, но острую на язычок Сластену фон Дю, чье существование в гоночном симуляторе Sugar Rush внезапно оказывается под угрозой. Наконец-то Ральфу выпадает шанс показать, что он умеет не только разрушать!
Рейтинг:

Качество: UHD BDRemux 2160p
Формат: MKV
Видео: HEVC, HDR, 49277 Кбит/с, 3840x2160, 29.970 кадр/с, 10 bit
Аудио: Русский, DTS-HD MA / 5.1 / 48 kHz / 3774 kbps / 24-bit (DTS Core: 5.1 / 48 kHz / 1509 kbps / 24-bit) - Полное дублирование
Аудио: Русский, DTS-HD MA / 7.1 / 48 kHz / 4797 kbps / 24-bit (DTS Core: 5.1 / 48 kHz / 1509 kbps / 24-bit) - AVO | Юрий Сербин
Аудио: Украинский, AC3, 6 ch, 48 kHz, 640 kbps - Полное дублирование
Аудио: English, Dolby TrueHD / 7.1 / 48 kHz / 4597 kbps / 24-bit (DTS Core: 5.1 / 48 kHz / 1509 kbps / 24-bit) - Original
Аудио: English, AC3, 6 ch, 48 kHz, 640 kbps - Original
Навигация по главам: есть

Общее
Уникальный идентификатор : 178296084358767738302669989082903798468 (0x862293A812EBCB57AE7A028F7A16E2C4)
Полное имя : F:\Wreck.It.Ralph.2012.BDRemux.2160p.10bit.HEVC.HDR.4K.x265.Master5.mkv
Формат : Matroska
Версия формата : Version 4
Размер файла : 45,1 Гбайт
Продолжительность : 1 ч. 41 м.
Режим общего битрейта : Переменный
Общий поток : 63,7 Мбит/сек
Название фильма : Wreck.It.Ralph.2012.BDRemux.2160p.10bit.HEVC.HDR.4K.x265.Master5
Дата кодирования : UTC 2018-11-09 08:55:10
Программа кодирования : mkvmerge v7.9.0 ('Birds') 64bit
Библиотека кодирования : libebml v1.3.1 + libmatroska v1.4.2
Обложка : Yes
Attachments : cover_land.jpg / small_cover.jpg / small_cover_land.jpg / cover.jpg

Видео
Идентификатор : 1
Формат : HEVC
Формат/Информация : High Efficiency Video Coding
Коммерческое название : HDR10
Профиль формата : Main 10@L5.1@High
Идентификатор кодека : V_MPEGH/ISO/HEVC
Продолжительность : 1 ч. 41 м.
Битрейт : 49,2 Мбит/сек
Ширина : 3840 пикселей
Высота : 2160 пикселей
Соотношение сторон : 16:9
Режим частоты кадров : Постоянный
Частота кадров : 23,976 (23976/1000) кадра/сек
Частота кадров в оригинале : 23,976 (24000/1001) кадра/сек
Цветовое пространство : YUV
Субдискретизация насыщенности : 4:2:0 (Type 2)
Битовая глубина : 10 бит
Бит/(Пиксели*Кадры) : 0.248
Размер потока : 34,8 Гбайт (77%)
Заголовок : Wreck.It.Ralph.2012.BDRemux.2160p.10bit.HEVC.HDR.4K.x265.Master5
Библиотека кодирования : ATEME Titan File 3.8.16 (4.8.16.0)
Язык : Chinese
Default : Да
Forced : Нет
Цветовой диапазон : Limited
Основные цвета : BT.2020
Характеристики трансфера : PQ
Коэффициенты матрицы : BT.2020 non-constant
MasteringDisplay_ColorPrimaries : Display P3
MasteringDisplay_Luminance : min: 0.0001 cd/m2, max: 1000 cd/m2

Аудио #1
Идентификатор : 2
Формат : DTS XLL
Формат/Информация : Digital Theater Systems
Коммерческое название : DTS-HD Master Audio
Идентификатор кодека : A_DTS
Продолжительность : 1 ч. 41 м.
Вид битрейта : Переменный
Битрейт : 3773 Кбит/сек
Каналы : 6 каналов
Channel layout : C L R Ls Rs LFE
Частота : 48,0 КГц
Частота кадров : 93,750 кадра/сек (512 SPF)
Битовая глубина : 24 бит
Метод сжатия : Без потерь
Задержка видео : -1 мс.
Размер потока : 2,67 Гбайт (6%)
Заголовок : DTS-HD MA / 5.1 / 48 kHz / 3774 kbps / 24-bit - Полное дублирование
Язык : Russian
Default : Нет
Forced : Нет

Аудио #2
Идентификатор : 3
Формат : DTS XLL
Формат/Информация : Digital Theater Systems
Коммерческое название : DTS-HD Master Audio
Идентификатор кодека : A_DTS
Продолжительность : 1 ч. 41 м.
Вид битрейта : Переменный
Битрейт : 4796 Кбит/сек
Каналы : 8 каналов
Channel layout : C L R LFE Lb Rb Lss Rss
Частота : 48,0 КГц
Частота кадров : 93,750 кадра/сек (512 SPF)
Битовая глубина : 24 бит
Метод сжатия : Без потерь
Задержка видео : -1 мс.
Размер потока : 3,39 Гбайт (8%)
Заголовок : DTS-HD MA / 7.1 / 48 kHz / 4797 kbps / 24-bit - AVO | Юрий Сербин
Язык : Russian
Default : Нет
Forced : Нет

Аудио #3
Идентификатор : 4
Формат : AC-3
Формат/Информация : Audio Coding 3
Коммерческое название : Dolby Digital
Идентификатор кодека : A_AC3
Продолжительность : 1 ч. 41 м.
Вид битрейта : Постоянный
Битрейт : 640 Кбит/сек
Каналы : 6 каналов
Channel layout : L R C LFE Ls Rs
Частота : 48,0 КГц
Частота кадров : 31,250 кадров/сек (1536 SPF)
Битовая глубина : 16 бит
Метод сжатия : С потерями
Задержка видео : -1 мс.
Размер потока : 463 Мбайт (1%)
Заголовок : AC3, 6 ch, 48 kHz, 640 kbps - Полное дублирование
Язык : Ukrainian
ServiceKind/String : Complete Main
Default : Нет
Forced : Нет

Аудио #4
Идентификатор : 5
Формат : MLP FBA 16-ch
Формат/Информация : Meridian Lossless Packing FBA with 16-channel presentation
Коммерческое название : Dolby TrueHD with Dolby Atmos
Идентификатор кодека : A_TRUEHD
Продолжительность : 1 ч. 41 м.
Вид битрейта : Переменный
Битрейт : 4597 Кбит/сек
Максимальный битрейт : 5742 Кбит/сек
Каналы : 8 каналов
Channel layout : L R C LFE Ls Rs Lb Rb
Частота : 48,0 КГц
Частота кадров : 1200,000 кадров/сек (40 SPF)
Метод сжатия : Без потерь
Задержка видео : 32 мс.
Размер потока : 3,25 Гбайт (7%)
Язык : English
Default : Да
Forced : Нет
Number of dynamic objects : 13
Bed channel count : 1 канал
Bed channel configuration : LFE

Аудио #5
Идентификатор : 6
Формат : AC-3
Формат/Информация : Audio Coding 3
Коммерческое название : Dolby Digital
Идентификатор кодека : A_AC3
Продолжительность : 1 ч. 41 м.
Вид битрейта : Постоянный
Битрейт : 640 Кбит/сек
Каналы : 6 каналов
Channel layout : L R C LFE Ls Rs
Частота : 48,0 КГц
Частота кадров : 31,250 кадров/сек (1536 SPF)
Битовая глубина : 16 бит
Метод сжатия : С потерями
Задержка видео : 31 мс.
Размер потока : 463 Мбайт (1%)
Язык : English
ServiceKind/String : Complete Main
Default : Нет
Forced : Нет

Текст #1
Идентификатор : 7
Формат : UTF-8
Идентификатор кодека : S_TEXT/UTF8
Идентификатор кодека/Информация : UTF-8 Plain Text
Продолжительность : 1 ч. 34 м.
Битрейт : 111 бит/сек
ElementCount : 1329
Размер потока : 76,8 Кбайт (0%)
Заголовок : Полные
Язык : Russian
Default : Нет
Forced : Нет

Текст #2
Идентификатор : 8
Формат : UTF-8
Идентификатор кодека : S_TEXT/UTF8
Идентификатор кодека/Информация : UTF-8 Plain Text
Продолжительность : 1 ч. 34 м.
Битрейт : 1 бит/сек
ElementCount : 39
Размер потока : 1,23 Кбайт (0%)
Заголовок : Надписи
Язык : Russian
Default : Нет
Forced : Нет

Текст #3
Идентификатор : 9
Формат : UTF-8
Идентификатор кодека : S_TEXT/UTF8
Идентификатор кодека/Информация : UTF-8 Plain Text
Продолжительность : 1 ч. 34 м.
Битрейт : 108 бит/сек
ElementCount : 1560
Размер потока : 74,7 Кбайт (0%)
Заголовок : Полные
Язык : Ukrainian
Default : Нет
Forced : Нет

Текст #4
Идентификатор : 10
Формат : UTF-8
Идентификатор кодека : S_TEXT/UTF8
Идентификатор кодека/Информация : UTF-8 Plain Text
Продолжительность : 1 ч. 34 м.
Битрейт : 2 бит/сек
ElementCount : 47
Размер потока : 1,45 Кбайт (0%)
Заголовок : Надписи
Язык : Ukrainian
Default : Нет
Forced : Нет

Текст #5
Идентификатор : 11
Формат : UTF-8
Идентификатор кодека : S_TEXT/UTF8
Идентификатор кодека/Информация : UTF-8 Plain Text
Продолжительность : 1 ч. 40 м.
Битрейт : 66 бит/сек
ElementCount : 1565
Размер потока : 48,6 Кбайт (0%)
Заголовок : Full
Язык : English
Default : Нет
Forced : Нет

Текст #6
Идентификатор : 12
Формат : UTF-8
Идентификатор кодека : S_TEXT/UTF8
Идентификатор кодека/Информация : UTF-8 Plain Text
Продолжительность : 1 ч. 40 м.
Битрейт : 74 бит/сек
ElementCount : 1874
Размер потока : 54,5 Кбайт (0%)
Заголовок : (SDH)
Язык : English
Default : Нет
Forced : Нет

Меню
00:00:00.000 : ru:1. Начальные титры
00:07:12.140 : ru:2. 30 лет
00:16:34.910 : ru:3. Долг Героя
00:27:07.501 : ru:4. Сладкий форсаж
00:37:25.952 : ru:5. Глюк
00:44:46.684 : ru:6. Турбо
00:48:45.130 : ru:7. Создание машины
00:51:36.009 : ru:8. Уроки вождения
00:58:56.032 : ru:9. Тайна Короля Карамели
01:09:07.893 : ru:10. Поломка
01:13:39.623 : ru:11. Каждый день моей жизни
01:15:56.802 : ru:12. Гонка
01:18:52.978 : ru:13. Нашествие кибержуков
01:21:53.742 : ru:14. Не могу выйти из игры
01:27:25.365 : ru:15. По одной игре за раз
01:33:10.543 : ru:16. Финальные титры
piratbit.pw



Скачать Ральф через торрент https://a.radikal.ru/a04/1811/12/021e85490e0f.jpg Скачать фильм Ральф через торрент бесплантно в хорошем качестве Описание: Ральф — второстепенный персонаж восьмибитовой компьютерной игры, и ему надоело находиться в тени главного героя, мастера на все ... 10 10 4
Торрент: Зарегистрирован [2018-11-09 17:05] · скачан: 22 раз
Статус: √ проверено
Размер: 45.08 GB
Как cкачать? Как скачать Ральф через торрент | qTorrent

% Раздел Тема Автор DL S | L
Ultra HD (UHD: 2K, 4K, 8K) [ 43.94 GB ] Ральф / Wreck-It Ralph [2012 Мультфильм UHD BDRemux 2160p] 2xAVO+DUB [] bober100 Скачать
1 | 0
Иностранные мультфильмы [ 3.46 GB ] Ральф / Wreck-It Ralph [2012 BDRip-AVC] [Локализованный видеоряд] + 2x[AVO] + Dub killermax2013 Скачать
1 | 0
Иностранные мультфильмы [ 2.05 GB ] Ральф / Wreck-It Ralph [2012 мультфильм HDRip] [AVO] + [AVO] killermax2013 Скачать
1 | 1

28-11-2019 20:33  

Отключить всю рекламу на сайте

09-11-2018 18:09 Ральф Скачать торрент  

Суперский мультpiratbit.pw



09-11-2018 22:24 Ральф Скачать торрент  

CTEHbKA писал(а):

Суперский мульт



piratbit.pw



26-02-2019 18:27 Ральф Скачать торрент  

У меня звук быстрее видео, не прикольно так смотреть. Собственно и не стал смотреть!piratbit.pw



    Дорогой пользователь! Огромная просьба, поблагодарите релизера, оцените раздачу и оставьте свои комментарий, если Вы скачали Ральф через торрент бесплатно! Внесите свою лепту в развитие PiratBit!
    Комментировать посты могут только пользователи прошедшие не сложную регистрацию
    Показать сообщения:    

    Ральф через торрент
    Скачать бесплатно Ральф
    Ральф скачать торрент
    Ральф смотреть онлайн
    Cкачать фильм Ральф бесплатно
    Ральф скачать торрент в хорошем качестве
    Ральф смотреть онлайн бесплатно в хорошем качестве


    Вы не можете начинать темы
    Вы не можете отвечать на сообщения
    Вы не можете редактировать свои сообщения
    Вы не можете удалять свои сообщения
    Вы не можете голосовать в опросах
    Вы не можете прикреплять файлы к сообщениям
    Вы можете скачивать файлы