1 сезон

1 сезон

iTunes

1

КиноПоиск HD

Кинопоиск HD

iTunes

13

1 сезон

RePack

30

Новинка

ВАЖНО

ИГРА 18+

pack

RePack

MK11
pack

Легкие деньги

RePack

jed

RePack

fifa19

RePack

RDR2

RePack

NEED FOR SPEED™ PAYBACK

4 сезон

9 сезон

Бесстыжие 9 сезон

Все сериалы

все сериалы на PB.wtf

RePack

FAR CRY 5
  
Magnet ссылка

Зимний цветок / Fuyu no hana (Ясуо Фурухата) [1978, драма, криминал, BDRip 720p by msltel] AVO piratbit.pw

Зимний цветок через торрент piratbit.pw

Размер: 4.58 GB | Добавлен: 2 года 5 мес. назад | Торрент скачан:6 раз
Скачать  

06-11-2018 07:06 Зимний цветок Скачать торрент  

Название: Зимний цветок
Оригинальное название: Fuyu no hana
Год выпуска: 1978
Страна: Япония
Жанр: драма, криминал
Продолжительность: 02:00:46
Перевод: авторский

Режиссер: Ясуо Фурухата
В ролях: Кэн Такакура, Кимико Икегами, Кинъя Китаодзи, Мицуко Байсё, Сусуму Фудзита, Нэндзи Кобаяси, Йоичи Миура, Исао Нацуяги, Масуми Окада, Сёити Одзава, Куниэ Танака, Минори Тэрада, Хидэдзи Отаки

О фильме: Кано — якудза. Он должен убить Мацуоку, который предал их босса. Кано знал, что у Мацуоки была трёхлетняя дочь, поэтому прежде, чем сдаться полиции, он попросил человека, которому доверял, чтоб тот заботился о ней. В тюрьме Кано продолжал посылать письма девочке, маскируясь под дядю из Бразилии. Через 15 лет Кано выходит из тюрьмы. Бывший якузда настроен жить, не нарушая закон, однако жизнь вносит свои коррективы...



Качество: BDRip 720p
Формат: MKV
Видео: MPEG-4 AVC, 5039 Кбит/с, 1280x694
Аудио 1: русский, AC3, 192 kbps, 2 ch, 48 kHz [авторский, Андрей Дольский]
Аудио 2: японский, AC3, 192 kbps, 2 ch, 48 kHz [оригинал]
Субтитры: английские
Общее
Уникальный идентификатор : 200625102991098421280524431849121775592 (0x96EEFD45B09B0E90ACBEF4E0684DFFE8)
Полное имя : D:\Video\Зимний цветок.1978.BDRip 720p by msltel.mkv
Формат : Matroska
Версия формата : Version 4
Размер файла : 4,58 Гбайт
Продолжительность : 2 ч. 0 м.
Общий поток : 5425 Кбит/сек
Название фильма : Rip by msltel
Дата кодирования : UTC 2018-11-05 06:09:18
Программа кодирования : mkvmerge v8.2.0 ('World of Adventure') 64bit
Библиотека кодирования : libebml v1.3.1 + libmatroska v1.4.2

Видео
Идентификатор : 1
Формат : AVC
Формат/Информация : Advanced Video Codec
Профиль формата : High@L4.1
Настройки формата : CABAC / 9 Ref Frames
Параметр CABAC формата : Да
Параметр RefFrames формата : 9 кадров
Идентификатор кодека : V_MPEG4/ISO/AVC
Продолжительность : 2 ч. 0 м.
Битрейт : 5039 Кбит/сек
Ширина : 1280 пикселей
Высота : 694 пикселя
Соотношение сторон : 1,85:1
Режим частоты кадров : Постоянный
Частота кадров : 23,976 (24000/1001) кадра/сек
Цветовое пространство : YUV
Субдискретизация насыщенности : 4:2:0
Битовая глубина : 8 бит
Тип развёртки : Прогрессивная
Бит/(Пиксели*Кадры) : 0.237
Размер потока : 4,25 Гбайт (93%)
Библиотека кодирования : x264 core 155 r2901 7d0ff22
Настройки программы : cabac=1 / ref=9 / deblock=1:-3:-2 / analyse=0x3:0x113 / me=umh / subme=11 / psy=1 / psy_rd=1.00:0.15 / mixed_ref=1 / me_range=32 / chroma_me=1 / trellis=2 / 8x8dct=1 / cqm=0 / deadzone=21,11 / fast_pskip=0 / chroma_qp_offset=-3 / threads=6 / lookahead_threads=1 / sliced_threads=0 / nr=0 / decimate=1 / interlaced=0 / bluray_compat=0 / constrained_intra=0 / bframes=11 / b_pyramid=2 / b_adapt=2 / b_bias=0 / direct=1 / weightb=1 / open_gop=0 / weightp=2 / keyint=230 / keyint_min=23 / scenecut=40 / intra_refresh=0 / rc_lookahead=40 / rc=crf / mbtree=1 / crf=20.0 / qcomp=0.60 / qpmin=0 / qpmax=69 / qpstep=4 / vbv_maxrate=62500 / vbv_bufsize=78125 / crf_max=0.0 / nal_hrd=none / filler=0 / ip_ratio=1.40 / aq=1:1.00
Язык : Japanese
Default : Да
Forced : Нет

Аудио #1
Идентификатор : 2
Формат : AC-3
Формат/Информация : Audio Coding 3
Коммерческое название : Dolby Digital
Идентификатор кодека : A_AC3
Продолжительность : 2 ч. 0 м.
Вид битрейта : Постоянный
Битрейт : 192 Кбит/сек
Каналы : 2 канала
Channel layout : L R
Частота : 48,0 КГц
Частота кадров : 31,250 кадров/сек (1536 SPF)
Битовая глубина : 16 бит
Метод сжатия : С потерями
Размер потока : 166 Мбайт (4%)
Заголовок : Андрей Дольский
Язык : Russian
ServiceKind/String : Complete Main
Default : Да
Forced : Нет

Аудио #2
Идентификатор : 3
Формат : AC-3
Формат/Информация : Audio Coding 3
Коммерческое название : Dolby Digital
Идентификатор кодека : A_AC3
Продолжительность : 2 ч. 0 м.
Вид битрейта : Постоянный
Битрейт : 192 Кбит/сек
Каналы : 2 канала
Channel layout : L R
Частота : 48,0 КГц
Частота кадров : 31,250 кадров/сек (1536 SPF)
Битовая глубина : 16 бит
Метод сжатия : С потерями
Размер потока : 166 Мбайт (4%)
Заголовок : original
Язык : Japanese
ServiceKind/String : Complete Main
Default : Нет
Forced : Нет

Текст
Идентификатор : 4
Формат : UTF-8
Идентификатор кодека : S_TEXT/UTF8
Идентификатор кодека/Информация : UTF-8 Plain Text
Продолжительность : 2 ч. 0 м.
Битрейт : 27 бит/сек
ElementCount : 894
Размер потока : 24,4 Кбайт (0%)
Заголовок : английские
Язык : English
Default : Нет
Forced : Нет
piratbit.pw



Скачать Зимний цветок через торрент https://c.radikal.ru/c12/1811/cf/cfc4eb2e4c00.jpg Скачать фильм Зимний цветок через торрент бесплантно в хорошем качестве О фильме: Кано — якудза. Он должен убить Мацуоку, который предал их босса. Кано знал, что у Мацуоки была трёхлетняя дочь, поэтому прежде, ... 5 10 1
Торрент: Зарегистрирован [2018-11-06 07:06] · скачан: 6 раз
Статус: √ проверено
Размер: 4.58 GB
Как cкачать? Как скачать Зимний цветок через торрент | UTorrent

% Раздел Тема Автор DL S | L
Фильмы с авторской озвучкой [ 13.24 GB ] Зимний цветок / Fuyu no hana [1978 BDRip 1080p by msltel] AVO msltel Скачать
1 | 0

28-11-2019 20:33  

Отключить всю рекламу на сайте

    Дорогой пользователь! Огромная просьба, поблагодарите релизера, оцените раздачу и оставьте свои комментарий, если Вы скачали Зимний цветок через торрент бесплатно! Внесите свою лепту в развитие PiratBit!
    Комментировать посты могут только пользователи прошедшие не сложную регистрацию
    Показать сообщения:    

    Зимний цветок через торрент
    Скачать бесплатно Зимний цветок
    Зимний цветок скачать торрент
    Зимний цветок смотреть онлайн
    Cкачать фильм Зимний цветок бесплатно
    Зимний цветок скачать торрент в хорошем качестве
    Зимний цветок смотреть онлайн бесплатно в хорошем качестве


    Вы не можете начинать темы
    Вы не можете отвечать на сообщения
    Вы не можете редактировать свои сообщения
    Вы не можете удалять свои сообщения
    Вы не можете голосовать в опросах
    Вы не можете прикреплять файлы к сообщениям
    Вы можете скачивать файлы