1 сезон

1 сезон

iTunes

1

КиноПоиск HD

Кинопоиск HD

iTunes

13

1 сезон

RePack

30

Ultimate

ВАЖНО

ИГРА 18+

pack

RePack

MK11
pack

Легкие деньги

RePack

jed

RePack

fifa19

RePack

RDR2

RePack

NEED FOR SPEED™ PAYBACK

4 сезон

9 сезон

Бесстыжие 9 сезон

Все сериалы

все сериалы на PB.wtf

RePack

FAR CRY 5
  
Magnet ссылка

Подвиды / Subspecies (Тед Николау) [1991 г., ужасы, фэнтези, BDRip 720p] 3xAVO [Гаврилов, Иванов, Дохалов] piratbit.pw

Подвиды через торрент piratbit.pw

Размер: 4.59 GB | Добавлен: 2 года 5 мес. назад | Торрент скачан:5 раз
Скачать  

05-11-2018 11:37 Подвиды Скачать торрент  

Подвиды / Subspecies
Год выпуска: 1991
Страна: США
Жанр: Ужасы, фэнтези
Продолжительность: 01:23:06
Перевод: Авторский (одноголосый)

Режиссер: Тед Николау

rating

В ролях: Энгус Скримм, Андерс Хове, Ирина Мовила, Лаура Тейт, Мишель МакБрайд, Иван Дж. Радо, Мара Григоре, Адриан Вылку, Майкл Уотсон, Лили Думитреску

Описание: Три студентки отправляются в этнографическую экспедицию, как раз в Трансильванию, в заброшенное селение по соседству со средневековым замком. Некто Стефан, тоже исследователь, берётся им помочь в научных поисках.Первый день после прибытия проходит в нормальном рабочем ритме. А потом наступает ночь — ночь вампиров, за ней следующая, и этому ужасу не будет конца.
Качество: BDRip 720p
Формат: MKV
Видео кодек: MPEG-4 AVC
Аудио кодек: AC3
Видео: MPEG-4 AVC, 7000 Кбит/с, 1280x720
Аудио#1: Русский, AC3, 2 ch, 256 Кбит/с - Андрей Гаврилов
Аудио#2: Русский, AC3, 2 ch, 192 Кбит/с - Вартан Дохалов
Аудио#3: Русский, AC3, 2 ch, 192 Кбит/с - Михаил Иванов
Аудио#4: Английский, AC3, 2 ch, 256 Кбит/с
Video
ID : 1
Format : AVC
Format/Info : Advanced Video Codec
Format profile : High@L4.1
Format settings : CABAC / 9 Ref Frames
Format settings, CABAC : Yes
Format settings, RefFrames : 9 frames
Codec ID : V_MPEG4/ISO/AVC
Duration : 1 h 23 min
Bit rate : 7 000 kb/s
Width : 1 280 pixels
Height : 720 pixels
Display aspect ratio : 16:9
Frame rate mode : Constant
Frame rate : 23.976 (24000/1001) FPS
Color space : YUV
Chroma subsampling : 4:2:0
Bit depth : 8 bits
Scan type : Progressive
Bits/(Pixel*Frame) : 0.317
Stream size : 4.06 GiB (89%)
Title : Subspecies.1991.720p.BDRip.AVC-MM
Writing library : x264 core 146 r2538 121396c
Encoding settings : cabac=1 / ref=9 / deblock=1:-3:-3 / analyse=0x3:0x133 / me=umh / subme=11 / psy=1 / psy_rd=1.00:0.00 / mixed_ref=1 / me_range=48 / chroma_me=1 / trellis=2 / 8x8dct=1 / cqm=0 / deadzone=21,11 / fast_pskip=0 / chroma_qp_offset=-2 / threads=12 / lookahead_threads=3 / sliced_threads=0 / nr=0 / decimate=0 / interlaced=0 / bluray_compat=0 / constrained_intra=0 / bframes=11 / b_pyramid=2 / b_adapt=2 / b_bias=0 / direct=3 / weightb=1 / open_gop=1 / weightp=2 / keyint=250 / keyint_min=23 / scenecut=40 / intra_refresh=0 / rc_lookahead=60 / rc=2pass / mbtree=1 / bitrate=7000 / ratetol=1.0 / qcomp=0.60 / qpmin=0 / qpmax=69 / qpstep=4 / cplxblur=20.0 / qblur=0.5 / vbv_maxrate=50000 / vbv_bufsize=62500 / nal_hrd=none / filler=0 / ip_ratio=1.40 / aq=1:1.10
Language : English
Default : Yes
Forced : No

Audio #1
ID : 2
Format : AC-3
Format/Info : Audio Coding 3
Format settings, Endianness : Big
Codec ID : A_AC3
Duration : 1 h 23 min
Bit rate mode : Constant
Bit rate : 256 kb/s
Channel(s) : 2 channels
Channel positions : Front: L R
Sampling rate : 48.0 kHz
Frame rate : 31.250 FPS (1536 SPF)
Bit depth : 16 bits
Compression mode : Lossy
Stream size : 152 MiB (3%)
Title : AVO Андрей Гаврилов
Language : Russian
Service kind : Complete Main
Default : Yes
Forced : No

Audio #2
ID : 3
Format : AC-3
Format/Info : Audio Coding 3
Format settings, Endianness : Big
Codec ID : A_AC3
Duration : 1 h 23 min
Bit rate mode : Constant
Bit rate : 192 kb/s
Channel(s) : 2 channels
Channel positions : Front: L R
Sampling rate : 48.0 kHz
Frame rate : 31.250 FPS (1536 SPF)
Bit depth : 16 bits
Compression mode : Lossy
Stream size : 114 MiB (2%)
Title : AVO Вартан Дохалов
Language : Russian
Service kind : Complete Main
Default : No
Forced : No

Audio #3
ID : 4
Format : AC-3
Format/Info : Audio Coding 3
Format settings, Endianness : Big
Codec ID : A_AC3
Duration : 1 h 23 min
Bit rate mode : Constant
Bit rate : 192 kb/s
Channel(s) : 2 channels
Channel positions : Front: L R
Sampling rate : 48.0 kHz
Frame rate : 31.250 FPS (1536 SPF)
Bit depth : 16 bits
Compression mode : Lossy
Stream size : 114 MiB (2%)
Title : AVO Михаил Иванов
Language : Russian
Service kind : Complete Main
Default : No
Forced : No

Audio #4
ID : 5
Format : AC-3
Format/Info : Audio Coding 3
Format settings, Endianness : Big
Codec ID : A_AC3
Duration : 1 h 23 min
Bit rate mode : Constant
Bit rate : 256 kb/s
Channel(s) : 2 channels
Channel positions : Front: L R
Sampling rate : 48.0 kHz
Frame rate : 31.250 FPS (1536 SPF)
Bit depth : 16 bits
Compression mode : Lossy
Stream size : 152 MiB (3%)
Title : Original
Language : English
Service kind : Complete Main
Default : No
Forced : No

Menu
00:00:00.000 : en:00:00:00.000
00:00:00.367 : en:00:00:00.367
00:04:41.815 : en:00:04:41.815
00:10:00.066 : en:00:10:00.066
00:15:28.261 : en:00:15:28.261
00:19:41.547 : en:00:19:41.547
00:24:29.501 : en:00:24:29.501
00:29:28.934 : en:00:29:28.934
00:34:58.930 : en:00:34:58.930
00:40:00.265 : en:00:40:00.265
00:45:00.298 : en:00:45:00.298
00:50:00.331 : en:00:50:00.331
00:55:00.364 : en:00:55:00.364
01:00:00.397 : en:01:00:00.397
01:04:56.593 : en:01:04:56.593
01:10:00.463 : en:01:10:00.463
01:14:56.993 : en:01:14:56.993
01:19:39.908 : en:01:19:39.908

скриншот   скриншот   скриншот  

- Песня "Nightwing", написанная шведской блэк-метал группой Marduk из их одноименного альбома 1998 года, является заглавной темой фильма и посвящена главному антагонисту Раду Владисласу.

- Вампирских миньонов изначально должны были играть актеры в костюмах. Однако режиссер Тед Николау счел, что они переигрывают и их игра в целом плохо смотрится. После чего режиссер пригласил спеца по визуальным эффектам Дэвида У. Аллена, который создал кукольную анимацию миньонов.

- Первый американский фильм, снятый в Румынии после падения в ней коммунистического режима.

- Раду был назван в честь Раду III Красивого, господаря Валахии и младшего брата Влада Цепеша, ставшего прообразом Дракулы.

- В 1991 году студия Full Moon совместно с Eternity Comics спродюсировали серию комиксов для написания их по нескольких фильмам. Среди этих комиксов была серия «Подвиды», которая послужила приквелом к первому фильму. Комиксы имели такое же название, как и четыре выпущенных части минисериала.

- В трейлере Подвидов заимствована музыка из фильма From Beyond режиссера Стюарта Гордона.

piratbit.pw



Скачать Подвиды через торрент https://pic1.kartinco.top/images/11/z5wsy.jpg Скачать фильм Подвиды через торрент бесплантно в хорошем качестве Описание: Три студентки отправляются в этнографическую экспедицию, как раз в Трансильванию, в заброшенное селение по соседству со ... 10 10 6
Торрент: Зарегистрирован [2018-11-05 11:37] · скачан: 5 раз
Статус: √ проверено
Размер: 4.59 GB
Как cкачать? Как скачать Подвиды через торрент | UTorrent

% Раздел Тема Автор DL S | L
Фильмы с авторской озвучкой [ 7.37 GB ] Подвиды / Subspecies [1991 BDRip Авторский ] Бумер Скачать
1 | 0
Фильмы с авторской озвучкой [ 4.07 GB ] Подвиды 3: Жажда Крови / Subspecies III: Bloodlust [1994 BDRip 720p] AVO [А.Гаврилов] Леонид Ильич Скачать
1 | 0
Фильмы с авторской озвучкой [ 4.22 GB ] Подвиды 2: Кровавый камень / Subspecies 2: Bloodstone [1993 BDRip 720p] AVO [Гаврилов] Леонид Ильич Скачать
1 | 0

28-11-2019 20:33  

Отключить всю рекламу на сайте

    Дорогой пользователь! Огромная просьба, поблагодарите релизера, оцените раздачу и оставьте свои комментарий, если Вы скачали Подвиды через торрент бесплатно! Внесите свою лепту в развитие PiratBit!
    Комментировать посты могут только пользователи прошедшие не сложную регистрацию
    Показать сообщения:    

    Подвиды через торрент
    Скачать бесплатно Подвиды
    Подвиды скачать торрент
    Подвиды смотреть онлайн
    Cкачать фильм Подвиды бесплатно
    Подвиды скачать торрент в хорошем качестве
    Подвиды смотреть онлайн бесплатно в хорошем качестве


    Вы не можете начинать темы
    Вы не можете отвечать на сообщения
    Вы не можете редактировать свои сообщения
    Вы не можете удалять свои сообщения
    Вы не можете голосовать в опросах
    Вы не можете прикреплять файлы к сообщениям
    Вы можете скачивать файлы