Marvel's Avengers Deluxe Edition (супер цена) 159р. Внимание количество ограничено!!!

2 сезон

iTunes

iTunes

1

iTunes

iTunes

iTunes

WEBRip

iTunes

30
pack

Новость дня

ВАЖНО

!!Акция!!

Alien_RageХит недели

RePack

Horizon Zero Dawn

ИГРА 18+

pack

RePack

jed

!!Акция!!

Alien_Rage

RePack

fifa19

RePack

Assassins Creed: Odyssey

RePack

NEED FOR SPEED™ PAYBACK

4 сезон

9 сезон

Бесстыжие 9 сезон

Все сериалы

все сериалы на PB.wtf

RePack

FAR CRY 5
  

Танки (Ким Дружинин) [2018 г., приключения, история, военный, BDRip 1080p, HEVC (10bit)] piratbit.pw

Танки через торрент piratbit.pw

Размер: 3.76 GB | Добавлен: 1 год 10 мес. назад | Торрент скачан:275 раз
Скачать  

02-11-2018 13:06 Танки Скачать торрент  

Танки
Год выпуска: 2018
Страна: Россия
Жанр: приключения, история, военный
Продолжительность: 01:33:05
Субтитры: нет

Режиссер: Ким Дружинин



В ролях: Андрей Мерзликин, Аглая Тарасова, Александр Тютин, Сергей Стукалов

Описание: На пороге войны с фашистской Германией инженер Михаил Кошкин разрабатывает прототип нового инновационного танка Т-34. Чтобы доказать уникальность боевой машины, Кошкин и его команда отправляются в Москву на танках своим ходом.
Доп. информация: -
H.265/HEVC (High Efficiency Video Coding) - это новый стандарт кодирования видео.
- Стандарт H.265/HEVC является логическим продолжением стандарта
H.264/AVC (Advanced Video Coding), и характеризуется более эффективными
алгоритмами сжатия, а также поддержкой высокого разрешения вплоть до 8K UHD
(8192x4320). Первая версия стандарта H.265 была опубликована в начале 2013 года.
- Рипы в фомате HEVC поддерживается не всеми аппаратными проигрывателями.
- Для корректного воспроизведения может потребоваться обновление ПО.
- Владельцам несовместимого железа просьба не беспокоить,
есть альтернативные релизы.
Качество: BDRip 1080p
Формат: MKV
Видео кодек: H.265
Аудио кодек: AC3
Видео: 1920x856, ~5135 Kbps
Аудио: AC3, 6 ch, 640 Kbps - (Лицензия)
Релиз от: M@kSIMus


Общее
Уникальный идентификатор : 217015611165718044703743657668580765370 (0xA343AFB78A5C5311DBF90008675C6EBA)
Полное имя : F:\РАЗДАЧИ\Танки (2018) BDRip 1080p [HEVC] 10 bit.mkv
Формат : Matroska
Версия формата : Version 4 / Version 2
Размер файла : 3,76 Гбайт
Продолжительность : 1 ч. 33 м.
Общий поток : 5777 Кбит/сек
Дата кодирования : UTC 2018-07-26 04:37:49
Программа кодирования : mkvmerge v19.0.0 ('Brave Captain') 64-bit
Библиотека кодирования : libebml v1.3.5 + libmatroska v1.4.8
Обложка : Yes
Attachments : cover.jpg

Видео
Идентификатор : 1
Формат : HEVC
Формат/Информация : High Efficiency Video Coding
Профиль формата : Main 10@L5.1@High
Идентификатор кодека : V_MPEGH/ISO/HEVC
Продолжительность : 1 ч. 33 м.
Битрейт : 5135 Кбит/сек
Ширина : 1920 пикселей
Высота : 856 пикселей
Соотношение сторон : 2,25:1
Режим частоты кадров : Постоянный
Частота кадров : 24,000 кадра/сек
Цветовое пространство : YUV
Субдискретизация насыщенности : 4:2:0
Битовая глубина : 10 бит
Бит/(Пиксели*Кадры) : 0.130
Размер потока : 3,34 Гбайт (89%)
Заголовок : Танки (2018)
Библиотека кодирования : x265 2.8+19-bcdc610cf5f0:[Windows][GCC 7.3.0][64 bit] 10bit
Настройки программы : cpuid=1049583 / frame-threads=5 / numa-pools=4 / wpp / no-pmode / no-pme / no-psnr / no-ssim / log-level=3 / input-csp=1 / input-res=1920x856 / interlace=0 / total-frames=0 / level-idc=51 / high-tier=1 / uhd-bd=0 / ref=3 / allow-non-conformance / no-repeat-headers / annexb / no-aud / no-hrd / info / hash=0 / no-temporal-layers / open-gop / min-keyint=24 / keyint=240 / gop-lookahead=0 / bframes=4 / b-adapt=2 / b-pyramid / bframe-bias=0 / rc-lookahead=20 / lookahead-slices=5 / scenecut=40 / radl=0 / no-intra-refresh / ctu=64 / min-cu-size=8 / no-rect / no-amp / max-tu-size=32 / tu-inter-depth=1 / tu-intra-depth=1 / limit-tu=0 / rdoq-level=0 / dynamic-rd=0.00 / no-ssim-rd / signhide / no-tskip / nr-intra=0 / nr-inter=0 / no-constrained-intra / strong-intra-smoothing / max-merge=2 / limit-refs=3 / no-limit-modes / me=1 / subme=7 / merange=57 / temporal-mvp / weightp / no-weightb / no-analyze-src-pics / deblock=-3:-3 / sao / no-sao-non-deblock / rd=3 / no-early-skip / rskip / no-fast-intra / no-tskip-fast / no-cu-lossless / no-b-intra / no-splitrd-skip / rdpenalty=0 / psy-rd=2.00 / psy-rdoq=0.00 / no-rd-refine / no-lossless / cbqpoffs=0 / crqpoffs=0 / rc=crf / crf=18.0 / qcomp=0.60 / qpstep=4 / stats-write=0 / stats-read=0 / vbv-maxrate=160000 / vbv-bufsize=160000 / vbv-init=0.9 / crf-max=0.0 / crf-min=0.0 / ipratio=1.40 / pbratio=1.30 / aq-mode=1 / aq-strength=1.00 / cutree / zone-count=0 / no-strict-cbr / qg-size=32 / no-rc-grain / qpmax=69 / qpmin=0 / no-const-vbv / sar=1 / overscan=0 / videoformat=5 / range=0 / colorprim=1 / transfer=1 / colormatrix=1 / chromaloc=0 / display-window=0 / max-cll=0,0 / min-luma=0 / max-luma=1023 / log2-max-poc-lsb=8 / vui-timing-info / vui-hrd-info / slices=1 / no-opt-qp-pps / no-opt-ref-list-length-pps / no-multi-pass-opt-rps / scenecut-bias=0.05 / no-opt-cu-delta-qp / no-aq-motion / no-hdr / no-hdr-opt / no-dhdr10-opt / no-idr-recovery-sei / analysis-reuse-level=5 / scale-factor=0 / refine-intra=0 / refine-inter=0 / refine-mv=0 / no-limit-sao / ctu-info=0 / no-lowpass-dct / refine-mv-type=0 / copy-pic=1 / max-ausize-factor=1.0 / no-dynamic-refine / no-single-sei
Язык : Russian
Default : Да
Forced : Нет
Цветовой диапазон : Limited
Основные цвета : BT.709
Характеристики трансфера : BT.709
Коэффициенты матрицы : BT.709

Аудио
Идентификатор : 2
Формат : AC-3
Формат/Информация : Audio Coding 3
Идентификатор кодека : A_AC3
Продолжительность : 1 ч. 33 м.
Вид битрейта : Постоянный
Битрейт : 640 Кбит/сек
Каналы : 6 каналов
Расположение каналов : Front: L C R, Side: L R, LFE
Частота : 48,0 КГц
Частота кадров : 31,250 кадров/сек (1536 SPF)
Битовая глубина : 16 бит
Метод сжатия : С потерями
Размер потока : 426 Мбайт (11%)
Заголовок : Оригинал
Язык : Russian
ServiceKind/String : Complete Main
Default : Да
Forced : Нет

piratbit.pw



Скачать Танки через торрент https://b.radikal.ru/b04/1811/4d/e2fdb604bca6.jpg Скачать фильм Танки через торрент бесплантно в хорошем качестве Описание: На пороге войны с фашистской Германией инженер Михаил Кошкин разрабатывает прото нового инновационного танка Т-3 Чтобы ... 6.7 10 11
Info! Золотая раздача, скачанное не засчитывается.
Торрент: Зарегистрирован [2018-11-02 13:06] · скачан: 275 раз
Статус: √ проверено
Размер: 3.76 GB
Как cкачать? Как скачать Танки через торрент | qTorrent

% Раздел Тема Автор DL S | L
Аниме [HD 720p, 1080p] [ 3.3 GB ] Девушки и танки / Girls und Panzer [2012 Аниме мультфильм HDTV 720p Любительский двухголосый] NoMilkToday Скачать
1 | 0
Eurodance, Technopop, Disco (сборники) (mp3) [ 683 MB ] VA - Крутой Bass в тачку 2013 / MP3 / 320 kbps / Dance Club megatoxa Скачать
1 | 0
Фильмы 2013 [DVDrip, WEB-DLRip, HDrip] [ 2.14 GB ] Мастер тай-цзи / Man of Tai Chi [2013 BDRip-AVC многоголосый] [Baibako] potroks Скачать
1 | 0
Фильмы до 2000 г. [ 1.45 GB ] Где моя тачка чувак? / Dude Where's My Car? [2000 BDRip DUB ] MIXX_ON Скачать
1 | 0
Военное дело [ 745 MB ] Великие боевые машины Второй Мировой: Танки союзников / The Great Fighting Machines of World War 2: Tanks of US Russian and British Armies [1990 Документальный DVDRip] 220v0lt Скачать
1 | 0
Азиатские фильмы [ 1.37 GB ] Мастер тай-цзи / Man of Tai Chi [2013 боевые искусства HDRip многоголосный) [BaiBako] akcent Скачать
1 | 0
Фильмы 2013 [DVDrip, WEB-DLRip, HDrip] [ 1.37 GB ] Тачка №19 / Vehicle 19 [2013 HDRip лицензия] Ворон Скачать
1 | 0

28-11-2019 20:33  

Отключить всю рекламу на сайте

02-11-2018 16:39 Танки Скачать торрент  

расписывать не буду- а в целом- по картинке- гуд, по сценарию, раскрытию сюжетных линий - полный УГ. Все в кучу, все вперемешку,+сиськи...как результат - "киноговно"piratbit.pw



02-11-2018 17:14 Танки Скачать торрент  

Ну пипец!piratbit.pw



02-11-2018 18:50 Танки Скачать торрент  

музыка там хорошая! и всё)piratbit.pw



02-11-2018 19:11 Танки Скачать торрент  

ROBOCOP писал(а):

музыка там хорошая! и всё)

Где,в танке? Кобзон что ли поет?))))piratbit.pw



03-11-2018 05:13 Танки Скачать торрент  

Koshmarwin писал(а):

расписывать не буду- а в целом- по картинке- гуд, по сценарию, раскрытию сюжетных линий - полный УГ. Все в кучу, все вперемешку,+сиськи...как результат - "киноговно"

согласен, очередной высер российского кинематогрофа. "российского" к сожалению маленькой буквы, ибо в данный момент не заслуживает писаться с большой...piratbit.pw



03-11-2018 09:45 Танки Скачать торрент  

aksaleale писал(а):

Koshmarwin писал(а):

расписывать не буду- а в целом- по картинке- гуд, по сценарию, раскрытию сюжетных линий - полный УГ. Все в кучу, все вперемешку,+сиськи...как результат - "киноговно"

согласен, очередной высер российского кинематогрофа. "российского" к сожалению маленькой буквы, ибо в данный момент не заслуживает писаться с большой...

Я тебе секрет открою, "российского" и так с маленькой буквы пишется ))))piratbit.pw



03-11-2018 09:59 Танки Скачать торрент  

кино слабенькое... не могу рекомендовать к просмотруpiratbit.pw



03-11-2018 11:02 Танки Скачать торрент  

Довоенные события?пффф,в чём кайф то?Вот если бы про Курскую Дугу сняли-это было бы эпично.Но куда уж там нашим такие глобальные баталии снять,кишка тонка!Попросили бы Wargaming помочь,что ли?piratbit.pw



    Дорогой пользователь! Огромная просьба, поблагодарите релизера, оцените раздачу и оставьте свои комментарий, если Вы скачали Танки через торрент бесплатно! Внесите свою лепту в развитие PiratBit!
    Комментировать посты могут только пользователи прошедшие не сложную регистрацию
    Показать сообщения:    

    Танки через торрент
    Скачать бесплатно Танки
    Танки скачать торрент
    Танки смотреть онлайн
    Cкачать фильм Танки бесплатно
    Танки скачать торрент в хорошем качестве
    Танки смотреть онлайн бесплатно в хорошем качестве


    Вы не можете начинать темы
    Вы не можете отвечать на сообщения
    Вы не можете редактировать свои сообщения
    Вы не можете удалять свои сообщения
    Вы не можете голосовать в опросах
    Вы не можете прикреплять файлы к сообщениям
    Вы можете скачивать файлы