Ссылка на приватное зеркало нашего сайта всего за 1$. Внимание количество ограничено!!!

2 сезон

iTunes

iTunes

1

iTunes

iTunes

iTunes

WEBRip

iTunes

30
pack

Вам бонус

ВАЖНО

!!Акция!!

Alien_RageХит недели

RePack

Horizon Zero Dawn

ИГРА 18+

pack

RePack

jed

!!Акция!!

Alien_Rage

RePack

fifa19

RePack

Assassins Creed: Odyssey

RePack

NEED FOR SPEED™ PAYBACK

4 сезон

9 сезон

Бесстыжие 9 сезон

Все сериалы

все сериалы на PB.wtf

RePack

FAR CRY 5
  

Зеленый патруль (Глеб Нифонтов) [1961, СССР, детский, SATRip от AVP Studio] piratbit.pw

Зеленый патруль через торрент piratbit.pw

Размер: 744 MB | Добавлен: 1 год 10 мес. назад | Торрент скачан:10 раз
Скачать  

31-10-2018 09:07 Зеленый патруль Скачать торрент  

Зеленый патруль
Страна: СССР
Производство: Моснаучфильм

Жанр: детский
Год выпуска: 1961
Продолжительность: 01:10:56

Перевод: Не требуется
Cубтитры: нет
Оригинальная аудиодорожка: русский

Режиссер: Глеб Нифонтов

В ролях:
Владимир Гуськов, Иван Коваль-Самборский, Виктор Хохряков, А. Глущенко, Владимир Буяновский, Валерий Головненков, Борис Сморчков, Л. Калинина, Тамара Козлова, Саша Баранов...
Об актёрах подробней

Описание:
Димка мечтал о приключениях в джунглях Африки и собирался провести лето в пионерском лагере на берегу Черного моря. Однако первые дни каникул он проводит в обыкновенном лесу среднерусской полосы. Узнав, что природу охраняют школьники, Димка вступает в «Зеленый патруль».

Исходник: DVB
Качество видео: SATRip
Формат видео: AVI

Видео: 672x496 (4:3), 25,000 кадров/сек, XviD ~ 1265 kbps avg, 0.152 bit/pixel
Аудио: 48 kHz, Dolby Digital AC3 2.0, 192 kbps

Раздача от:
Общее
Полное имя : Zelenyy.patrul.1961.SATRip_[New-team]_by_AVP_Studio.avi
Формат : AVI
Формат/Информация : Audio Video Interleave
Размер файла : 744 Мбайт
Продолжительность : 1 ч. 10 м.
Общий поток : 1466 Кбит/сек
Программа кодирования : VirtualDubMod 1.5.10.3 | www.virtualdub-fr.org || (build 2550/release)
Библиотека кодирования : VirtualDubMod build 2550/release

Видео
Идентификатор : 0
Формат : MPEG-4 Visual
Профиль формата : Advanced Simple@L5
Настройки формата : BVOP1 / Custom Matrix
Параметр BVOP формата : 1
Параметр QPel формата : Нет
Параметр GMC формата : Без точки перехода
Параметр матрицы формата : Выборочная
Идентификатор кодека : XVID
Идентификатор кодека/Подсказка : XviD
Продолжительность : 1 ч. 10 м.
Битрейт : 1265 Кбит/сек
Ширина : 672 пикселя
Высота : 496 пикселей
Соотношение сторон : 4:3
Частота кадров : 25,000 кадров/сек
Цветовое пространство : YUV
Субдискретизация насыщенности : 4:2:0
Битовая глубина : 8 бит
Тип развёртки : Прогрессивная
Метод сжатия : С потерями
Бит/(Пиксели*Кадры) : 0.152
Размер потока : 642 Мбайт (86%)
Библиотека кодирования : XviD 73

Аудио
Идентификатор : 1
Формат : AC-3
Формат/Информация : Audio Coding 3
Коммерческое название : Dolby Digital
Идентификатор кодека : 2000
Продолжительность : 1 ч. 10 м.
Вид битрейта : Постоянный
Битрейт : 192 Кбит/сек
Каналы : 2 канала
Channel layout : L R
Частота : 48,0 КГц
Частота кадров : 31,250 кадров/сек (1536 SPF)
Битовая глубина : 16 бит
Метод сжатия : С потерями
Размер потока : 97,4 Мбайт (13%)
Выравнивание : Разделение по промежуткам
Продолжительность промежутка : 40 мс. (1,00 видеокадр)
Время предзагрузки промежутка : 500 мс
piratbit.pw



Скачать Зеленый патруль через торрент http://picplus.ru/img/1810/31/ef282a17.png Скачать фильм Зеленый патруль через торрент бесплантно в хорошем качестве Описание:Димка мечтал о приключениях в джунглях Африки и собирался провести лето в пионерском лагере на берегу Черного моря. Однако первые ... 5 10 1
Info! Золотая раздача, скачанное не засчитывается.
Торрент: Зарегистрирован [2018-10-31 09:07] · скачан: 10 раз
Статус: √ проверено
Размер: 744 MB
Как cкачать? Как скачать Зеленый патруль через торрент | qTorrent

% Раздел Тема Автор DL S | L
Детские отечественные фильмы [ 745 MB ] Зеленый патруль [1961 СССР детский SATRip-AVC от AVP Studio] AVP Studio Скачать
1 | 0

28-11-2019 20:33  

Отключить всю рекламу на сайте

31-10-2018 10:29 Зеленый патруль Скачать торрент  

Топик был перенесен из форума Кино СССР в форум Детские отечественные фильмы


-Lexx-piratbit.pw



    Дорогой пользователь! Огромная просьба, поблагодарите релизера, оцените раздачу и оставьте свои комментарий, если Вы скачали Зеленый патруль через торрент бесплатно! Внесите свою лепту в развитие PiratBit!
    Комментировать посты могут только пользователи прошедшие не сложную регистрацию
    Показать сообщения:    

    Зеленый патруль через торрент
    Скачать бесплатно Зеленый патруль
    Зеленый патруль скачать торрент
    Зеленый патруль смотреть онлайн
    Cкачать фильм Зеленый патруль бесплатно
    Зеленый патруль скачать торрент в хорошем качестве
    Зеленый патруль смотреть онлайн бесплатно в хорошем качестве


    Вы не можете начинать темы
    Вы не можете отвечать на сообщения
    Вы не можете редактировать свои сообщения
    Вы не можете удалять свои сообщения
    Вы не можете голосовать в опросах
    Вы не можете прикреплять файлы к сообщениям
    Вы можете скачивать файлы