1 сезон

1 сезон

iTunes

1

КиноПоиск HD

Кинопоиск HD

iTunes

13

1 сезон

RePack

30

Новинка

ВАЖНО

ИГРА 18+

pack

RePack

MK11
pack

Легкие деньги

RePack

jed

RePack

fifa19

RePack

RDR2

RePack

NEED FOR SPEED™ PAYBACK

4 сезон

9 сезон

Бесстыжие 9 сезон

Все сериалы

все сериалы на PB.wtf

RePack

FAR CRY 5
  
Magnet ссылка

Три тайны / Three Secrets (Роберт Уайз) [1950, драма, BDRip 720p by msltel] AVO piratbit.pw

Три тайны через торрент piratbit.pw

Размер: 3.74 GB | Добавлен: 2 года 5 мес. назад | Торрент скачан:1 раз
Скачать  

25-10-2018 06:58 Три тайны Скачать торрент  

Название: Три тайны
Оригинальное название: Three Secrets
Год выпуска: 1950
Страна: США
Жанр: драма
Продолжительность: 01:38:57
Перевод: авторский

Режиссер: Роберт Уайз
В ролях: Элинор Паркер, Патриша Нил, Рут Роман, Фрэнк Лавджой, Лейф Эриксон, Тед де Корсия, Эдмон Райан, Ларри Китинг, Кэтерин Уоррен, Артур Франц, Джей Адлер, Элеонор Одли

О фильме: Маленький туристический самолёт, летящий над Сьерра-Невадой, разбивается в горах. Спасатели отправляются на его поиски. В катастрофе погибает семейная пара, но их приёмный ребёнок остаётся жив. У подножия горы в толпе зевак, привлечённых происшествием, особую тревогу проявляют три женщины. Судя по дате рождения ребёнка и некоторым сведениям, каждая из трёх может оказаться его родной матерью. Чтобы заглушить страх ожидания, они вспоминают прошлое...



Качество: BDRip 720p
Формат: MKV
Видео: MPEG-4 AVC, 5018 Кбит/с, 986x720
Аудио 1: русский, AC3, 192 kbps, 1 ch, 48 kHz [авторский, Андрей Дольский]
Аудио 2: английский, AC3, 192 kbps, 1 ch, 48 kHz [оригинал]
Субтитры: английские
Главы/чаптеры
Общее
Уникальный идентификатор : 216319531833886124739726549876329885116 (0xA2BDA05B3102183F8FE7762A436B2DBC)
Полное имя : D:\Video\Три тайны.1950.BDRip 720p by msltel.mkv
Формат : Matroska
Версия формата : Version 4
Размер файла : 3,74 Гбайт
Продолжительность : 1 ч. 38 м.
Общий поток : 5404 Кбит/сек
Название фильма : Rip by msltel
Дата кодирования : UTC 2018-10-24 13:46:36
Программа кодирования : mkvmerge v8.2.0 ('World of Adventure') 64bit
Библиотека кодирования : libebml v1.3.1 + libmatroska v1.4.2

Видео
Идентификатор : 1
Формат : AVC
Формат/Информация : Advanced Video Codec
Профиль формата : High@L4.1
Настройки формата : CABAC / 9 Ref Frames
Параметр CABAC формата : Да
Параметр RefFrames формата : 9 кадров
Идентификатор кодека : V_MPEG4/ISO/AVC
Продолжительность : 1 ч. 38 м.
Битрейт : 5018 Кбит/сек
Ширина : 986 пикселей
Высота : 720 пикселей
Соотношение сторон : 4:3
Режим частоты кадров : Постоянный
Частота кадров : 23,976 (24000/1001) кадра/сек
Цветовое пространство : YUV
Субдискретизация насыщенности : 4:2:0
Битовая глубина : 8 бит
Тип развёртки : Прогрессивная
Бит/(Пиксели*Кадры) : 0.295
Размер потока : 3,47 Гбайт (93%)
Библиотека кодирования : x264 core 155 r2901 7d0ff22
Настройки программы : cabac=1 / ref=9 / deblock=1:-3:-2 / analyse=0x3:0x113 / me=umh / subme=11 / psy=1 / psy_rd=1.00:0.15 / mixed_ref=1 / me_range=32 / chroma_me=1 / trellis=2 / 8x8dct=1 / cqm=0 / deadzone=21,11 / fast_pskip=0 / chroma_qp_offset=-3 / threads=6 / lookahead_threads=1 / sliced_threads=0 / nr=0 / decimate=1 / interlaced=0 / bluray_compat=0 / constrained_intra=0 / bframes=11 / b_pyramid=2 / b_adapt=2 / b_bias=0 / direct=1 / weightb=1 / open_gop=0 / weightp=2 / keyint=230 / keyint_min=23 / scenecut=40 / intra_refresh=0 / rc_lookahead=40 / rc=crf / mbtree=1 / crf=18.5 / qcomp=0.60 / qpmin=0 / qpmax=69 / qpstep=4 / vbv_maxrate=62500 / vbv_bufsize=78125 / crf_max=0.0 / nal_hrd=none / filler=0 / ip_ratio=1.40 / aq=1:1.00
Язык : English
Default : Да
Forced : Нет

Аудио #1
Идентификатор : 2
Формат : AC-3
Формат/Информация : Audio Coding 3
Коммерческое название : Dolby Digital
Идентификатор кодека : A_AC3
Продолжительность : 1 ч. 38 м.
Вид битрейта : Постоянный
Битрейт : 192 Кбит/сек
Каналы : 1 канал
Channel layout : C
Частота : 48,0 КГц
Частота кадров : 31,250 кадров/сек (1536 SPF)
Битовая глубина : 16 бит
Метод сжатия : С потерями
Размер потока : 136 Мбайт (4%)
Заголовок : Андрей Дольский
Язык : Russian
ServiceKind/String : Complete Main
Default : Да
Forced : Нет

Аудио #2
Идентификатор : 3
Формат : AC-3
Формат/Информация : Audio Coding 3
Коммерческое название : Dolby Digital
Идентификатор кодека : A_AC3
Продолжительность : 1 ч. 38 м.
Вид битрейта : Постоянный
Битрейт : 192 Кбит/сек
Каналы : 1 канал
Channel layout : C
Частота : 48,0 КГц
Частота кадров : 31,250 кадров/сек (1536 SPF)
Битовая глубина : 16 бит
Метод сжатия : С потерями
Размер потока : 136 Мбайт (4%)
Заголовок : original
Язык : English
ServiceKind/String : Complete Main
Default : Нет
Forced : Нет

Текст
Идентификатор : 4
Формат : UTF-8
Идентификатор кодека : S_TEXT/UTF8
Идентификатор кодека/Информация : UTF-8 Plain Text
Продолжительность : 1 ч. 37 м.
Битрейт : 71 бит/сек
ElementCount : 1394
Размер потока : 50,8 Кбайт (0%)
Заголовок : английские
Язык : English
Default : Нет
Forced : Нет

Меню
00:00:00.000 : en:Chapter 1
00:09:41.664 : en:Chapter 2
00:18:22.935 : en:Chapter 3
00:29:50.747 : en:Chapter 4
00:40:17.832 : en:Chapter 5
00:59:12.132 : en:Chapter 6
01:08:15.758 : en:Chapter 7
01:19:01.904 : en:Chapter 8
piratbit.pw



Скачать Три тайны через торрент https://c.radikal.ru/c39/1810/f1/6ebaa5eb7079.jpg Скачать фильм Три тайны через торрент бесплантно в хорошем качестве О фильме: Маленький туристический самолёт, летящий над Сьерра-Невадой, разбивается в горах. Спасатели отправляются на его поиски. В ... 5 10 1
Торрент: Зарегистрирован [2018-10-25 06:58] · скачан: 1 раз
Статус: √ проверено
Размер: 3.74 GB
Как cкачать? Как скачать Три тайны через торрент | UTorrent

% Раздел Тема Автор DL S | L
Фильмы с авторской озвучкой [ 11.51 GB ] Три тайны / Three Secrets [1950 BDRip 1080p by msltel] AVO msltel Скачать
1 | 0

28-11-2019 20:33  

Отключить всю рекламу на сайте

    Дорогой пользователь! Огромная просьба, поблагодарите релизера, оцените раздачу и оставьте свои комментарий, если Вы скачали Три тайны через торрент бесплатно! Внесите свою лепту в развитие PiratBit!
    Комментировать посты могут только пользователи прошедшие не сложную регистрацию
    Показать сообщения:    

    Три тайны через торрент
    Скачать бесплатно Три тайны
    Три тайны скачать торрент
    Три тайны смотреть онлайн
    Cкачать фильм Три тайны бесплатно
    Три тайны скачать торрент в хорошем качестве
    Три тайны смотреть онлайн бесплатно в хорошем качестве


    Вы не можете начинать темы
    Вы не можете отвечать на сообщения
    Вы не можете редактировать свои сообщения
    Вы не можете удалять свои сообщения
    Вы не можете голосовать в опросах
    Вы не можете прикреплять файлы к сообщениям
    Вы можете скачивать файлы