Marvel's Avengers Deluxe Edition (супер цена) 159р. Внимание количество ограничено!!!

2 сезон

iTunes

iTunes

1

iTunes

iTunes

iTunes

WEBRip

iTunes

30
pack

Новость дня

ВАЖНО

!!Акция!!

Alien_RageХит недели

RePack

Horizon Zero Dawn

ИГРА 18+

pack

RePack

jed

!!Акция!!

Alien_Rage

RePack

fifa19

RePack

Assassins Creed: Odyssey

RePack

NEED FOR SPEED™ PAYBACK

4 сезон

9 сезон

Бесстыжие 9 сезон

Все сериалы

все сериалы на PB.wtf

RePack

FAR CRY 5
  

История одного назначения (Авдотья Смирнова) [2018, драма, WEB-DL 720p] [iTunes] piratbit.pw

История одного назначения через торрент piratbit.pw

Размер: 3.42 GB | Добавлен: 1 год 10 мес. назад | Торрент скачан:145 раз
Скачать  

23-10-2018 15:46 История одного назначения Скачать торрент  

История одного назначения
Год выпуска: 2018
Страна: Россия
Жанр: драма
Продолжительность: 01:48:51
Перевод: Не требуется | iTunes
Субтитры: отсутствуют

Режиссер: Авдотья Смирнова

rating

В ролях:

Алексей Смирнов, Евгений Харитонов, Филипп Гуревич, Ирина Горбачева, Елизавета Янковская, Игорь Золотовицкий, Анна Михалкова, Сергей Уманов, Анна Пармас, Андрей Смирнов

Описание:

В пехотном полку в Тульской области, куда отправляется на службу вдохновленный передовыми идеями столичный поручик Григорий Колокольцев, происходит преступление. Солдату, на плечи которого ложится вина, грозит военный трибунал и расстрел. Колокольцев обращается за помощью к графу Толстому, который решает защитить невиновного.

Качество: WEB-DL 720p
Формат: MKV

Видео: MPEG-4 AVC, 4028 Кбит/с, 1280x538
Аудио: AC3, 48 kHz, 6 ch, ~384.00 kbps avg | русский | iTunes
скриншот  скриншот  скриншот  скриншот  скриншот  

Общее
Уникальный идентификатор : 195660831037900527946621085637098109175 (0x9332E7C49F25022382028EE3CD3C78F7)
Полное имя : D:\История одного назначения.2O17.O.WEB-DL.72Op.mkv
Формат : Matroska
Версия формата : Version 2
Размер файла : 3,42 Гбайт
Продолжительность : 1 ч. 48 м.
Общий поток : 4502 Кбит/сек
Дата кодирования : UTC 2018-10-23 11:47:49
Программа кодирования : mkvmerge v8.3.0 ('Over the Horizon') 64bit
Библиотека кодирования : libebml v1.3.1 + libmatroska v1.4.2

Видео
Идентификатор : 1
Формат : AVC
Формат/Информация : Advanced Video Codec
Профиль формата : High@L4.1
Параметр CABAC формата : Да
Параметр RefFrames формата : 4 кадра
Идентификатор кодека : V_MPEG4/ISO/AVC
Продолжительность : 1 ч. 48 м.
Битрейт : 4028 Кбит/сек
Ширина : 1280 пикселей
Высота : 538 пикселей
Соотношение сторон : 2,40:1
Режим частоты кадров : Постоянный
Частота кадров : 25,000 кадров/сек
Цветовое пространство : YUV
Субдискретизация насыщенности : 4:2:0
Битовая глубина : 8 бит
Тип развёртки : Прогрессивная
Бит/(Пиксели*Кадры) : 0.234
Размер потока : 3,06 Гбайт (89%)
Язык : Russian
Default : Да
Forced : Нет

Аудио
Идентификатор : 2
Формат : AC-3
Формат/Информация : Audio Coding 3
Расширение режима : CM (complete main)
Параметр Endianness формата : Big
Идентификатор кодека : A_AC3
Продолжительность : 1 ч. 48 м.
Вид битрейта : Постоянный
Битрейт : 384 Кбит/сек
Каналы : 6 каналов
Расположение каналов : Front: L C R, Side: L R, LFE
Частота : 48,0 КГц
Частота кадров : 31,250 кадров/сек (1536 spf)
Метод сжатия : С потерями
Размер потока : 299 Мбайт (9%)
Язык : Russian
Default : Да
Forced : Нет

piratbit.pw



Скачать История одного назначения через торрент http://i95.fastpic.ru/big/2018/1023/23/55cd2fd5bb2ba6a437d7d4478a027523.jpg Скачать фильм История одного назначения через торрент бесплантно в хорошем качестве Описание: В пехотном полку в Тульской области, куда отправляется на службу вдохновленный передовыми идеями столичный поручик Григорий ... 9.8 10 8
Info! Золотая раздача, скачанное не засчитывается.
Торрент: Зарегистрирован [2018-10-23 15:46] · скачан: 145 раз
Статус: √ проверено
Размер: 3.42 GB
Как cкачать? Как скачать История одного назначения через торрент | qTorrent

% Раздел Тема Автор DL S | L
Наши новые фильмы 2018-2019 [ 746 MB ] История одного назначения [2018 WEB-DLRip] bober100 Скачать
1 | 0
Наши новые фильмы 2018-2019 [ 1.46 GB ] История одного назначения [2018 WEB-DLRip] bober100 Скачать
1 | 0
Наши фильмы (HD, WEB-DL 720p, 1080p) [ 3.76 GB ] История одного назначения [2018 WEB-DL 1080p] bober100 Скачать
1 | 0

28-11-2019 20:33  

Отключить всю рекламу на сайте

23-10-2018 21:01 История одного назначения Скачать торрент  

Игра актёров отвратительна .piratbit.pw



    Дорогой пользователь! Огромная просьба, поблагодарите релизера, оцените раздачу и оставьте свои комментарий, если Вы скачали История одного назначения через торрент бесплатно! Внесите свою лепту в развитие PiratBit!
    Комментировать посты могут только пользователи прошедшие не сложную регистрацию
    Показать сообщения:    

    История одного назначения через торрент
    Скачать бесплатно История одного назначения
    История одного назначения скачать торрент
    История одного назначения смотреть онлайн
    Cкачать фильм История одного назначения бесплатно
    История одного назначения скачать торрент в хорошем качестве
    История одного назначения смотреть онлайн бесплатно в хорошем качестве


    Вы не можете начинать темы
    Вы не можете отвечать на сообщения
    Вы не можете редактировать свои сообщения
    Вы не можете удалять свои сообщения
    Вы не можете голосовать в опросах
    Вы не можете прикреплять файлы к сообщениям
    Вы можете скачивать файлы