1 сезон

3 сезон

iTunes

1

iTunes

DUB Netflix

iTunes

13

1 сезон

RePack

30

Deluxe

pack

Легкие деньги

ВАЖНО

ИГРА 18+

pack

RePack

MK11

RePack

jed

RePack

fifa19

RePack

RDR2

RePack

NEED FOR SPEED™ PAYBACK

4 сезон

9 сезон

Бесстыжие 9 сезон

Все сериалы

все сериалы на PB.wtf

RePack

FAR CRY 5

Anonymous, доброй ночи, мы не успеваем до 1 числа собрать деньги на оплату серверов, помогите нам пожалуйста в это трудное время. В качестве благодарности мы отключим Вам всю рекламу на сайте (укажите свой ник в строку Ваше имя)!

×
  
Magnet ссылка

История одного назначения (Авдотья Смирнова) [2018, драма, WEB-DLRip] [iTunes] piratbit.pw

История одного назначения через торрент piratbit.pw

Размер: 1.46 GB | Добавлен: 2 года 7 мес. назад | Торрент скачан:749 раз
Скачать  

23-10-2018 12:27 История одного назначения Скачать торрент  

История одного назначения
Год выпуска: 2018
Страна: Россия
Жанр: драма
Продолжительность: 01:48:51
Перевод: Не требуется | iTunes
Субтитры: отсутствуют

Режиссер: Авдотья Смирнова

rating

В ролях:

Алексей Смирнов, Евгений Харитонов, Филипп Гуревич, Ирина Горбачева, Елизавета Янковская, Игорь Золотовицкий, Анна Михалкова, Сергей Уманов, Анна Пармас, Андрей Смирнов

Описание:

В пехотном полку в Тульской области, куда отправляется на службу вдохновленный передовыми идеями столичный поручик Григорий Колокольцев, происходит преступление. Солдату, на плечи которого ложится вина, грозит военный трибунал и расстрел. Колокольцев обращается за помощью к графу Толстому, который решает защитить невиновного.

Качество: WEB-DLRip
Формат: AVI

Видео: Xvid 73, 720x304, ~1524 kbps, 25,000 fps
Аудио: русский, AC3, 5.1 ch, 48 kHz, 384 kbps | iTunes
скриншот  скриншот  скриншот  скриншот  скриншот  

General
Полное имя : F:TorrentIstoriyaNaznacheniyaWEB-DLRip.avi
Формат : AVI
Формат/Информация : Audio Video Interleave
Профиль формата : OpenDML
Размер файла : 1.46 GiB
Продолжительность : 1 h 48 min
Общий поток : 1 920 kb/s
Программа кодирования : XviD4PSP 6.0 / 54.27.101

Video
Идентификатор : 0
Формат : MPEG-4 Visual
Профиль формата : Advanced Simple@L5
Настройки формата : BVOP2 / Custom Matrix
Параметр BVOP формата : 2
Параметр QPel формата : No
Параметр GMC формата : No warppoints
Параметр матрицы формата : Custom
Идентификатор кодека : XVID
Идентификатор кодека/Подсказка : XviD
Продолжительность : 1 h 48 min
Битрейт : 1 524 kb/s
Ширина : 720 pixels
Высота : 304 pixels
Соотношение сторон : 2.35:1
Частота кадров : 25.000 FPS
Цветовое пространство : YUV
Субдискретизация насыщенности : 4:2:0
Битовая глубина : 8 bits
Тип развёртки : Progressive
Метод сжатия : Lossy
Бит/(Пиксели*Кадры) : 0.279
Размер потока : 1.16 GiB (79%)
Библиотека кодирования : XviD 73

Audio
Идентификатор : 1
Формат : AC-3
Формат/Информация : Audio Coding 3
Идентификатор кодека : 2000
Продолжительность : 1 h 48 min
Вид битрейта : Constant
Битрейт : 384 kb/s
Каналы : 6 channels
Расположение каналов : Front: L C R, Side: L R, LFE
Частота : 48.0 kHz
Частота кадров : 31.250 FPS (1536 SPF)
Битовая глубина : 16 bits
Метод сжатия : Lossy
Размер потока : 299 MiB (20%)
Выравнивание : Aligned on interleaves
Продолжительность промежутка : 32 ms (0.80 video frame)

piratbit.pw



Скачать История одного назначения через торрент http://i95.fastpic.ru/big/2018/1023/23/55cd2fd5bb2ba6a437d7d4478a027523.jpg Скачать фильм История одного назначения через торрент бесплантно в хорошем качестве Описание: В пехотном полку в Тульской области, куда отправляется на службу вдохновленный передовыми идеями столичный поручик Григорий ... 10 10 13
Info! Золотая раздача, скачанное не засчитывается.
Торрент: Зарегистрирован [2018-10-23 12:27] · скачан: 749 раз
Статус: √ проверено
Размер: 1.46 GB
Как cкачать? Как скачать История одного назначения через торрент | UTorrent

% Раздел Тема Автор DL S | L
Наши фильмы 2018-2019 [ 746 MB ] История одного назначения [2018 WEB-DLRip] bober100 Скачать
1 | 0
Наши фильмы (HD, WEB-DL 720p, 1080p) [ 3.42 GB ] История одного назначения [2018 WEB-DL 720p] bober100 Скачать
1 | 0
Наши фильмы (HD, WEB-DL 720p, 1080p) [ 3.76 GB ] История одного назначения [2018 WEB-DL 1080p] bober100 Скачать
1 | 0

28-11-2019 20:33  

Отключить всю рекламу на сайте

    Дорогой пользователь! Огромная просьба, поблагодарите релизера, оцените раздачу и оставьте свои комментарий, если Вы скачали История одного назначения через торрент бесплатно! Внесите свою лепту в развитие PiratBit!
    Комментировать посты могут только пользователи прошедшие не сложную регистрацию
    Показать сообщения:    

    История одного назначения через торрент
    Скачать бесплатно История одного назначения
    История одного назначения скачать торрент
    История одного назначения смотреть онлайн
    Cкачать фильм История одного назначения бесплатно
    История одного назначения скачать торрент в хорошем качестве
    История одного назначения смотреть онлайн бесплатно в хорошем качестве


    Вы не можете начинать темы
    Вы не можете отвечать на сообщения
    Вы не можете редактировать свои сообщения
    Вы не можете удалять свои сообщения
    Вы не можете голосовать в опросах
    Вы не можете прикреплять файлы к сообщениям
    Вы можете скачивать файлы