MEGA SALE -50% FORZA HORIZON 4 ULTIMATE+ВСЕ DLC+ОНЛАЙН всего за 599р. 299 руб. (супер цена). Внимание количество ограничено!!!

iTunes

1+1

iTunes

мы

iTunes

1

iTunes

Чернобыль

iTunes

Ральф против интернета

Лицензия

ПШазам

Лицензия

Игра престолов

Лицензия

30
pack

ВАЖНО

!!Акция!!

Alien_RageХит недели

RePack

Resident Evil 21

ИГРА 18+

pack

RePack

Metro:Exodus

!!Акция!!

Alien_Rage

RePack

fifa19

RePack

Assassins Creed: Odyssey

RePack

NEED FOR SPEED™ PAYBACK

3 сезон

9 сезон

Бесстыжие 9 сезон

Все сериалы

все сериалы на PB.wtf

RePack

FAR CRY 5
Ребята, катастрофически не хватает 7730р. для оплаты серверов за АВГУСТ (всвязи с блокировками трафик упал в 3 раза), 1-2р., выручайте.
  

Болотная икра / Bayou Caviar (Кьюба Гудинг-мл.) [2018 г., Драма, WEBRip, Любительский (двухголосый) HiWayGrope] piratbit.pw

Болотная икра через торрент piratbit.pw

Размер: 1.43 GB | Добавлен: 11 мес. назад | Торрент скачан:52 раза
Скачать  

17-10-2018 09:21 Болотная икра Скачать торрент  

Болотная икра / Bayou Caviar
Год выпуска: 2018
Страна: США, Brittany House Pictures
Жанр: Драма
Продолжительность: 01:51:31
Перевод: Любительский (двухголосый) HiWayGrope
Субтитры: Отсутствуют

Режиссер: Кьюба Гудинг-мл.

rating

В ролях: Кьюба Гудинг-мл., Фамке Янссен, Ричард Дрейфусс, Лия Мари Джонсон, Грегг Белло, Кэтрин МакФи, Кен Лернер, Сэм Такур, Джеймс Моусес Блэк, Алекс Ковалёв и другие

Описание: Некогда успешный боксер Родни Джонс, после ухода своего тренера и покровителя, устраивается охранником в ночной клуб. Объединившись с фотографом-лесбиянкой Ник, он собирает компромат на богатого застройщика Айзека (Исаака), известного своими ортодоксальными взглядами...

Доп. информация: Реклама: присутствует

Качество: WEBRip
Формат: AVI
Видео кодек: XviD
Аудио кодек: AC3
Видео: XviD,720x304, 25 fps, ~1447 kbps
Аудио#1: AC3, 48 kHz, 6 ch, 384 Kbps
скриншот   скриншот   скриншот   скриншот  

General
Complete name : D:Bayou.Caviar.2018.WEBRip.HiWayGropeBayou.Caviar.2018.WEBRip.HiWayGrope.avi
Format : AVI
Format/Info : Audio Video Interleave
File size : 1.43 GiB
Duration : 1 h 51 min
Overall bit rate : 1 842 kb/s
Writing application : VirtualDubMod 1.5.10.2 (build 2540/release)
Writing library : VirtualDubMod build 2540/release

Video
ID : 0
Format : xvid
Codec ID : xvid
Duration : 1 h 51 min
Bit rate : 1 448 kb/s
Width : 720 pixels
Height : 304 pixels
Display aspect ratio : 2.35:1
Frame rate : 25.000 FPS
Bits/(Pixel*Frame) : 0.265
Stream size : 1.13 GiB (79%)

Audio
ID : 1
Format : AC-3
Format/Info : Audio Coding 3
Codec ID : 2000
Duration : 1 h 51 min
Bit rate mode : Constant
Bit rate : 384 kb/s
Channel(s) : 6 channels
Channel positions : Front: L C R, Side: L R, LFE
Sampling rate : 48.0 kHz
Frame rate : 31.250 FPS (1536 SPF)
Bit depth : 16 bits
Compression mode : Lossy
Stream size : 306 MiB (21%)
Alignment : Split accross interleaves
Interleave, duration : 40 ms (1.00 video frame)
Interleave, preload duration : 500 ms
Service kind : Complete Main

piratbit.pw



Скачать Болотная икра через торрент http://pic1.kartinco.top/images/11/9ffvt.jpg Скачать фильм Болотная икра через торрент бесплантно в хорошем качестве Описание: Некогда успешный боксер Родни Джонс, после ухода своего тренера и покровителя, устраивается охранником в ночной клуб. ... 9.5 10 4
Info! Золотая раздача, скачанное не засчитывается.
Торрент: Зарегистрирован [2018-10-17 09:21] · скачан: 52 раз
Статус: T временная
Размер: 1.43 GB
Как cкачать? Как скачать Болотная икра через торрент | qTorrent


>> Регистрируемся здесь <<






Отзывы и комментарии о схеме читаем и пишем здесь: ---> Отзывы и комментарии о схеме

Новые благодарочки в телеграм довольных пользователей:
скриншот   скриншот   скриншот   скриншот   скриншот

17-10-2018 11:22 Болотная икра Скачать торрент  

Стоит пачки семечек или не?piratbit.pw



11-09-2019 10:08 Болотная икра Скачать торрент  

Топик был перенесен из форума Фильмы (мультфильмы) cо спонсором показа (Новинки AVI/MKV) в форум Для поглощённых раздач

Причина переноса: Болотная икра / Bayou Caviar
bober100piratbit.pw



    Дорогой пользователь! Огромная просьба, поблагодарите релизера, оцените раздачу и оставьте свои комментарий, если Вы скачали Болотная икра через торрент бесплатно! Внесите свою лепту в развитие PiratBit!
    Комментировать посты могут только пользователи прошедшие не сложную регистрацию
    Показать сообщения:    

    Болотная икра через торрент
    Скачать бесплатно Болотная икра
    Болотная икра скачать торрент
    Болотная икра смотреть онлайн
    Cкачать фильм Болотная икра бесплатно
    Болотная икра скачать торрент в хорошем качестве
    Болотная икра смотреть онлайн бесплатно в хорошем качестве


    Вы не можете начинать темы
    Вы не можете отвечать на сообщения
    Вы не можете редактировать свои сообщения
    Вы не можете удалять свои сообщения
    Вы не можете голосовать в опросах
    Вы не можете прикреплять файлы к сообщениям
    Вы можете скачивать файлы