Ссылка на приватное зеркало нашего сайта всего за 1$. Внимание количество ограничено!!!

2 сезон

iTunes

iTunes

1

iTunes

iTunes

iTunes

WEBRip

iTunes

30
pack

Вам бонус

ВАЖНО

!!Акция!!

Alien_RageХит недели

RePack

Horizon Zero Dawn

ИГРА 18+

pack

RePack

jed

!!Акция!!

Alien_Rage

RePack

fifa19

RePack

Assassins Creed: Odyssey

RePack

NEED FOR SPEED™ PAYBACK

4 сезон

9 сезон

Бесстыжие 9 сезон

Все сериалы

все сериалы на PB.wtf

RePack

FAR CRY 5
  

Счастья! Здоровья! (Марк Горобец, Арман Марутян, Леонид Марголин) [2018, комедия, WEB-DL 720p] [iTunes] piratbit.pw

Счастья! Здоровья! через торрент piratbit.pw

Размер: 2.58 GB | Добавлен: 1 год 11 мес. назад | Торрент скачан:192 раза
Скачать  

13-10-2018 05:37 Счастья! Здоровья! Скачать торрент  

Счастья! Здоровья!«Основано на реальных традициях»
Год выпуска: 2018
Страна: Россия
Жанр: комедия
Продолжительность: 01:23:52
Перевод: Не требуется | iTunes
Субтитры: отсутствуют

Режиссер: Марк Горобец, Арман Марутян, Леонид Марголин



В ролях:

Зоя Бербер, Камиль Ларин, Марина Федункив, Сергей Аброскин, Наталья Рудова, Грант Тохатян, Даниил Вахрушев, Олег Верещагин, Дарья Пынзарь, Стася Милославская

Описание:

Три влюблённые пары - татарская, армянская и русская - готовятся сыграть свадьбы. Но выясняется, что для Рината и Гузельки свадьба - это способ добыть деньги, чтобы вернуть дорогую скрипку, для отца Артура важнее всего, чтобы свадьба его сына и москвички-Юли прошла в Армении, а у Светы есть «скелет в шкафу» - её «бывший» Андрей в день свадьбы с Олегом вышел из тюрьмы. Зато гости отрываются от души, а у зрителей фильма «Счастья! Здоровья!» есть уникальная возможность побывать сразу на трёх свадьбах. Тосты и конкурсы, песни и танцы, поцелуи и... драки - что за свадьба без драки?! Это бомбически круто и нереально смешно. Три свадьбы, три пары - такие разные, такие непохожие. Но любовь объединяет, а гости от души желают: «Счастья! Здоровья!»

Качество: WEB-DL 720p
Формат: MKV

Видео: 1280x536 (2.40:1), 24 fps, MPEG-4 AVC ~ 4026 kbps avg, 0.239 bit/pixel
Аудио: AC3, 48 kHz, 6 ch, ~384.00 kbps avg | русский | iTunes
скриншот  скриншот  скриншот  скриншот  скриншот  

Общее
Уникальный идентификатор : 245851921514747692616413521518135120181 (0xB8F55B95B403E142917CBAC6A78C9135)
Полное имя : D:\Счастья! Здоровья!.2O18.O.WEB-DL.72Op.mkv
Формат : Matroska
Версия формата : Version 2
Размер файла : 2,58 Гбайт
Продолжительность : 1 ч. 23 м.
Общий поток : 4413 Кбит/сек
Дата кодирования : UTC 2018-10-13 00:19:17
Программа кодирования : mkvmerge v8.3.0 ('Over the Horizon') 64bit
Библиотека кодирования : libebml v1.3.1 + libmatroska v1.4.2

Видео
Идентификатор : 1
Формат : AVC
Формат/Информация : Advanced Video Codec
Профиль формата : High@L4.1
Параметр CABAC формата : Да
Параметр RefFrames формата : 4 кадра
Идентификатор кодека : V_MPEG4/ISO/AVC
Продолжительность : 1 ч. 23 м.
Битрейт : 4026 Кбит/сек
Ширина : 1280 пикселей
Высота : 536 пикселей
Соотношение сторон : 2,40:1
Режим частоты кадров : Постоянный
Частота кадров : 24,000 кадра/сек
Цветовое пространство : YUV
Субдискретизация насыщенности : 4:2:0
Битовая глубина : 8 бит
Тип развёртки : Прогрессивная
Бит/(Пиксели*Кадры) : 0.239
Размер потока : 2,31 Гбайт (89%)
Язык : Russian
Default : Да
Forced : Нет

Аудио
Идентификатор : 2
Формат : AC-3
Формат/Информация : Audio Coding 3
Расширение режима : CM (complete main)
Параметр Endianness формата : Big
Идентификатор кодека : A_AC3
Продолжительность : 1 ч. 23 м.
Вид битрейта : Постоянный
Битрейт : 384 Кбит/сек
Каналы : 6 каналов
Расположение каналов : Front: L C R, Side: L R, LFE
Частота : 48,0 КГц
Частота кадров : 31,250 кадров/сек (1536 spf)
Метод сжатия : С потерями
Размер потока : 230 Мбайт (9%)
Заголовок : [ORIGINAL] DD 5.1 @ 384 kbps (iTunes)
Язык : Russian
Default : Да
Forced : Нет

Меню
00:00:00.000 : en:Глава 1
00:07:00.291 : en:Глава 2
00:12:13.499 : en:Глава 3
00:18:38.499 : en:Глава 4
00:26:23.665 : en:Глава 5
00:32:10.665 : en:Глава 6
00:39:42.373 : en:Глава 7
00:44:49.331 : en:Глава 8
00:50:51.706 : en:Глава 9
00:56:25.456 : en:Глава 10
01:00:54.372 : en:Глава 11
01:05:58.122 : en:Глава 12
01:13:15.955 : en:Глава 13

piratbit.pw



Скачать Счастья! Здоровья! через торрент http://img10.lostpic.net/2018/10/13/90ceec46538e4a02e6589d2ad786acbd.jpg Скачать фильм Счастья! Здоровья! через торрент бесплантно в хорошем качестве Описание: Три влюблённые пары - татарская, армянская и русская - готовятся сыграть свадьбы. Но выясняется, что для Рината и Гузельки ... 9 10 9
Торрент: Зарегистрирован [2018-10-13 05:37] · скачан: 192 раз
Статус: √ проверено
Размер: 2.58 GB
Как cкачать? Как скачать Счастья! Здоровья! через торрент | qTorrent

% Раздел Тема Автор DL S | L
Наши новые фильмы 2018-2019 [ 1.63 GB ] Счастья! Здоровья! [2018 WEB-DLRip-AVC] Sanekzade1989 Скачать
1 | 0
Наши новые фильмы 2018-2019 [ 1.37 GB ] Счастья! Здоровья! [2018 WEB-DLRip] bober100 Скачать
2 | 0
Наши новые фильмы 2018-2019 [ 698 MB ] Счастья! Здоровья! [2018 WEB-DLRip] Sherif Скачать
1 | 0
Наши фильмы (HD, WEB-DL 720p, 1080p) [ 2.95 GB ] Счастья! Здоровья! [2018 WEB-DL 1080p] bober100 Скачать
1 | 0

28-11-2019 20:33  

Отключить всю рекламу на сайте

    Дорогой пользователь! Огромная просьба, поблагодарите релизера, оцените раздачу и оставьте свои комментарий, если Вы скачали Счастья! Здоровья! через торрент бесплатно! Внесите свою лепту в развитие PiratBit!
    Комментировать посты могут только пользователи прошедшие не сложную регистрацию
    Показать сообщения:    

    Счастья! Здоровья! через торрент
    Скачать бесплатно Счастья! Здоровья!
    Счастья! Здоровья! скачать торрент
    Счастья! Здоровья! смотреть онлайн
    Cкачать фильм Счастья! Здоровья! бесплатно
    Счастья! Здоровья! скачать торрент в хорошем качестве
    Счастья! Здоровья! смотреть онлайн бесплатно в хорошем качестве


    Вы не можете начинать темы
    Вы не можете отвечать на сообщения
    Вы не можете редактировать свои сообщения
    Вы не можете удалять свои сообщения
    Вы не можете голосовать в опросах
    Вы не можете прикреплять файлы к сообщениям
    Вы можете скачивать файлы