1 сезон

1 сезон

iTunes

1

КиноПоиск HD

Кинопоиск HD

iTunes

13

1 сезон

RePack

30

Новинка

ВАЖНО

ИГРА 18+

pack

RePack

MK11
pack

Легкие деньги

RePack

jed

RePack

fifa19

RePack

RDR2

RePack

NEED FOR SPEED™ PAYBACK

4 сезон

9 сезон

Бесстыжие 9 сезон

Все сериалы

все сериалы на PB.wtf

RePack

FAR CRY 5
  
Magnet ссылка

Аллигатор / Alligator (Льюис Тиг) [1980 г., ужасы, фантастика, BDRip 720p] 3xAVO [Живов, Дольский, Кузнецов] piratbit.pw

Аллигатор через торрент piratbit.pw

Размер: 3.92 GB | Добавлен: 2 года 6 мес. назад | Торрент скачан:2 раза
Скачать  

08-10-2018 21:30 Аллигатор Скачать торрент  

Аллигатор / Alligator
Год выпуска: 1980
Страна: США
Жанр: Ужасы, фантастика
Продолжительность: 01:27:04
Перевод: Авторский (одноголосый)

Режиссер: Льюис Тиг

rating

В ролях: Роберт Форстер, Робин Райкер, Майкл В. Гаццо, Дин Джаггер, Сидни Лэссик, Джек Картер, Перри Лэнг, Генри Сильва, Барт Брэверман, Джон Лисбон Вуд

Описание: Детёныша аллигатора спустили в унитаз и он попал в подземную канализационную систему. Питаясь телами животных, над которыми вели гормональные эксперименты, он вырос до огромных размеров. Следующими в его питательном рационе стали горожане Чикаго.
Качество: BDRip 720p
Формат: MKV
Видео кодек: MPEG-4 AVC
Аудио кодек: MP3, АС3
Видео: MPEG-4 AVC, 5484 Кбит/с, 1280х716, 25 кадр/с
Аудио#1: Русский, MP3, 1 ch, 128 Кбит/с Живов
Аудио#2: Русский, AC3, 2 ch, 192 Кбит/с Кузнецов
Аудио#3: Русский, AC3, 2 ch, 192 Кбит/с Дольский
Аудио#4: Английский, AC3, 6 ch, 448 Кбит/с
Видео
Идентификатор : 1
Формат : AVC
Формат/Информация : Advanced Video Codec
Профиль формата : High@L4.1
Настройки формата : CABAC / 9 Ref Frames
Параметр CABAC формата : Да
Параметр RefFrames формата : 9 кадров
Идентификатор кодека : V_MPEG4/ISO/AVC
Продолжительность : 1 ч. 27 м.
Битрейт : 5484 Кбит/сек
Ширина : 1280 пикселей
Высота : 716 пикселей
Соотношение сторон : 16:9
Режим частоты кадров : Постоянный
Частота кадров : 25,000 кадров/сек
Цветовое пространство : YUV
Субдискретизация насыщенности : 4:2:0
Битовая глубина : 8 бит
Тип развёртки : Прогрессивная
Бит/(Пиксели*Кадры) : 0.239
Размер потока : 3,34 Гбайт (85%)
Заголовок : Alligator.1980.BDRip.720p
Библиотека кодирования : x264 core 152 r2851 ba24899
Настройки программы : cabac=1 / ref=9 / deblock=1:-3:-3 / analyse=0x3:0x133 / me=umh / subme=10 / psy=1 / psy_rd=1.00:0.10 / mixed_ref=1 / me_range=32 / chroma_me=1 / trellis=2 / 8x8dct=1 / cqm=0 / deadzone=21,11 / fast_pskip=0 / chroma_qp_offset=-3 / threads=3 / lookahead_threads=1 / sliced_threads=0 / nr=0 / decimate=1 / interlaced=0 / bluray_compat=0 / constrained_intra=0 / bframes=10 / b_pyramid=2 / b_adapt=2 / b_bias=0 / direct=3 / weightb=1 / open_gop=0 / weightp=2 / keyint=250 / keyint_min=25 / scenecut=40 / intra_refresh=0 / rc_lookahead=40 / rc=2pass / mbtree=1 / bitrate=5484 / ratetol=1.0 / qcomp=0.60 / qpmin=10 / qpmax=51 / qpstep=4 / cplxblur=20.0 / qblur=0.5 / vbv_maxrate=50000 / vbv_bufsize=62500 / nal_hrd=none / filler=0 / ip_ratio=1.40 / aq=1:1.00
Default : Да
Forced : Нет

Аудио #1
Идентификатор : 2
Формат : MPEG Audio
Версия формата : Version 1
Профиль формата : Layer 3
Идентификатор кодека : A_MPEG/L3
Идентификатор кодека/Подсказка : MP3
Продолжительность : 1 ч. 26 м.
Вид битрейта : Постоянный
Битрейт : 128 Кбит/сек
Каналы : 1 канал
Частота : 48,0 КГц
Частота кадров : 41,667 кадра/сек (1152 SPF)
Метод сжатия : С потерями
Размер потока : 79,6 Мбайт (2%)
Заголовок : AVO - Живов
Язык : Russian
Default : Да
Forced : Нет

Аудио #2
Идентификатор : 3
Формат : AC-3
Формат/Информация : Audio Coding 3
Идентификатор кодека : A_AC3
Продолжительность : 1 ч. 27 м.
Вид битрейта : Постоянный
Битрейт : 192 Кбит/сек
Каналы : 2 канала
Расположение каналов : Front: L R
Частота : 48,0 КГц
Частота кадров : 31,250 кадров/сек (1536 SPF)
Битовая глубина : 16 бит
Метод сжатия : С потерями
Размер потока : 120 Мбайт (3%)
Заголовок : AVO - Кузнецов
Язык : Russian
ServiceKind/String : Complete Main
Default : Нет
Forced : Нет

Аудио #3
Идентификатор : 4
Формат : AC-3
Формат/Информация : Audio Coding 3
Идентификатор кодека : A_AC3
Продолжительность : 1 ч. 27 м.
Вид битрейта : Постоянный
Битрейт : 192 Кбит/сек
Каналы : 2 канала
Расположение каналов : Front: L R
Частота : 48,0 КГц
Частота кадров : 31,250 кадров/сек (1536 SPF)
Битовая глубина : 16 бит
Метод сжатия : С потерями
Размер потока : 120 Мбайт (3%)
Заголовок : AVO - Дольский
Язык : Russian
ServiceKind/String : Complete Main
Default : Нет
Forced : Нет

Аудио #4
Идентификатор : 5
Формат : AC-3
Формат/Информация : Audio Coding 3
Идентификатор кодека : A_AC3
Продолжительность : 1 ч. 27 м.
Вид битрейта : Постоянный
Битрейт : 448 Кбит/сек
Каналы : 6 каналов
Расположение каналов : Front: L C R, Side: L R, LFE
Частота : 48,0 КГц
Частота кадров : 31,250 кадров/сек (1536 SPF)
Битовая глубина : 16 бит
Метод сжатия : С потерями
Размер потока : 279 Мбайт (7%)
Заголовок : Original
Язык : English
ServiceKind/String : Complete Main
Default : Нет
Forced : Нет

Меню
00:00:00.000 : en:Chapter 1
00:13:54.280 : en:Chapter 2
00:30:38.400 : en:Chapter 3
00:47:44.280 : en:Chapter 4
01:06:25.480 : en:Chapter 5

скриншот   скриншот   скриншот   скриншот   скриншот   скриншот   скриншот  

piratbit.pw



Скачать Аллигатор через торрент https://pic1.kartinco.top/images/11/rewkr.jpg Скачать фильм Аллигатор через торрент бесплантно в хорошем качестве Описание: Детёныша аллигатора спустили в унитаз и он попал в подземную канализационную систему. Питаясь телами животных, над которыми вели ... 10 10 1
Торрент: Зарегистрирован [2018-10-08 21:30] · скачан: 2 раз
Статус: √ проверено
Размер: 3.92 GB
Как cкачать? Как скачать Аллигатор через торрент | UTorrent

28-11-2019 20:33  

Отключить всю рекламу на сайте

    Дорогой пользователь! Огромная просьба, поблагодарите релизера, оцените раздачу и оставьте свои комментарий, если Вы скачали Аллигатор через торрент бесплатно! Внесите свою лепту в развитие PiratBit!
    Комментировать посты могут только пользователи прошедшие не сложную регистрацию
    Показать сообщения:    

    Аллигатор через торрент
    Скачать бесплатно Аллигатор
    Аллигатор скачать торрент
    Аллигатор смотреть онлайн
    Cкачать фильм Аллигатор бесплатно
    Аллигатор скачать торрент в хорошем качестве
    Аллигатор смотреть онлайн бесплатно в хорошем качестве


    Вы не можете начинать темы
    Вы не можете отвечать на сообщения
    Вы не можете редактировать свои сообщения
    Вы не можете удалять свои сообщения
    Вы не можете голосовать в опросах
    Вы не можете прикреплять файлы к сообщениям
    Вы можете скачивать файлы