1 сезон

3 сезон

iTunes

1

iTunes

DUB Netflix

iTunes

13

1 сезон

RePack

30

Deluxe

pack

Легкие деньги

ВАЖНО

ИГРА 18+

pack

RePack

MK11

RePack

jed

RePack

fifa19

RePack

RDR2

RePack

NEED FOR SPEED™ PAYBACK

4 сезон

9 сезон

Бесстыжие 9 сезон

Все сериалы

все сериалы на PB.wtf

RePack

FAR CRY 5

Anonymous, доброе утро, мы не успеваем до 1 числа собрать деньги на оплату серверов, помогите нам пожалуйста в это трудное время. В качестве благодарности мы отключим Вам всю рекламу на сайте (укажите свой ник в строку Ваше имя)!

×
  
Magnet ссылка

Сокровища Ермака (Олег Денисов) [2018, Семейный, приключения, WEB-DLRip] [iTunes] piratbit.pw

Сокровища Ермака через торрент piratbit.pw

Размер: 1.46 GB | Добавлен: 2 года 8 мес. назад | Торрент скачан:763 раза
Скачать  

04-10-2018 11:42 Сокровища Ермака Скачать торрент  

Сокровища Ермака
Год выпуска: 2018
Страна: Россия
Жанр: Семейный, приключения
Продолжительность: 01:28:13
Перевод: Не требуется | iTunes
Субтитры: отсутствуют

Режиссер: Олег Денисов

В ролях: Георгий Кальдин, Мария Полиенко, Владимир Грамматиков, Артем Лещик, Александр Кононец, Ирина Горячева, Полина Воробьёва, Роман Грибков, Сергей Гамов

Описание: После того, как одиннадцатилетний пермский школьник Костя, самозабвенно влюбленный в археологию, находит на учебных раскопках древний ларец Строгановых с картой, начинается настоящая охота за легендарным кладом Ермака. Карта оказывается моментально похищенной бандитами. Но у Кости остаются фотография карты и ключ, о существовании которого бандиты уже догадались. Мальчик отправляется на поиски сокровищ, предварительно убедив родителей, что всего лишь едет в деревню к бабушке. Когда-то из-за этого клада погиб дед мальчика, известный археолог, и Костя решительно настроен осуществить его мечту. Неожиданно для Кости, вместе с ним увязывается Маша, девочка-сорванец, сбежавшая из дома. Вдвоем дети умудряются скрываться и от бандитов, и от полиции, проявляя чудеса изобретательности и медленно, но верно, шаг за шагом, приближаясь к кладу.
Качество: WEB-DLRip
Формат: AVI
Видео кодек: XviD
Аудио кодек: AC3
Видео: XviD, 1976 Кбит/с, 704x372
Аудио: Русский, AC3, 6 ch, 384 Кбит/с iTunes
Видео
Идентификатор : 0
Формат : MPEG-4 Visual
Профиль формата : Advanced Simple@L5
Настройки формата : BVOP1 / Custom Matrix
Параметр BVOP формата : 1
Параметр QPel формата : Нет
Параметр GMC формата : Без точки перехода
Параметр матрицы формата : Выборочная
Идентификатор кодека : XVID
Идентификатор кодека/Подсказка : XviD
Продолжительность : 1 ч. 28 м.
Битрейт : 1976 Кбит/сек
Ширина : 704 пикселя
Высота : 372 пикселя
Соотношение сторон : 1,892
Частота кадров : 25,000 кадров/сек
Цветовое пространство : YUV
Субдискретизация насыщенности : 4:2:0
Битовая глубина : 8 бит
Тип развёртки : Прогрессивная
Метод сжатия : С потерями
Бит/(Пиксели*Кадры) : 0.302
Размер потока : 1,22 Гбайт (83%)
Библиотека кодирования : XviD 67

Аудио
Идентификатор : 1
Формат : AC-3
Формат/Информация : Audio Coding 3
Идентификатор кодека : 2000
Продолжительность : 1 ч. 28 м.
Вид битрейта : Постоянный
Битрейт : 384 Кбит/сек
Каналы : 6 каналов
Расположение каналов : Front: L C R, Side: L R, LFE
Частота : 48,0 КГц
Частота кадров : 31,250 кадров/сек (1536 SPF)
Битовая глубина : 16 бит
Метод сжатия : С потерями
Размер потока : 242 Мбайт (16%)
Выравнивание : Разделение по промежуткам
Продолжительность промежутка : 40 мс. (1,00 видеокадр)
Время предзагрузки промежутка : 500 мс.
ServiceKind/String : Complete Main

скриншот   скриншот   скриншот   скриншот   скриншот   скриншот  

piratbit.pw



Скачать Сокровища Ермака через торрент https://pic1.kartinco.top/images/11/lw48k.jpg Скачать фильм Сокровища Ермака через торрент бесплантно в хорошем качестве Описание: После того, как одиннадцатилетний пермский школьник Костя, самозабвенно влюбленный в археологию, находит на учебных раскопках ... 9.9 10 17
Торрент: Зарегистрирован [2018-10-04 11:42] · скачан: 763 раз
Статус: √ проверено
Размер: 1.46 GB
Как cкачать? Как скачать Сокровища Ермака через торрент | UTorrent

% Раздел Тема Автор DL S | L
Наши фильмы 2018-2019 [ 1.86 GB ] Сокровища Ермака [2018 WEB-DLRip-AVC] - ExKinoRay Enigma2010 Скачать
1 | 0
Наши фильмы (HD, WEB-DL 720p, 1080p) [ 3.41 GB ] Сокровища Ермака [2018 WEB-DL 1080p] bober100 Скачать
1 | 0

28-11-2019 20:33  

Отключить всю рекламу на сайте

04-10-2018 20:25 Сокровища Ермака Скачать торрент  

Топик был перенесен из форума Оформление раздач (Кино, Видео и ТВ) в форум Наши новые фильмы 2018


bober100piratbit.pw



04-10-2018 21:59 Сокровища Ермака Скачать торрент  

Прикольный вроде фильм )))) Спасибо ))piratbit.pw



    Дорогой пользователь! Огромная просьба, поблагодарите релизера, оцените раздачу и оставьте свои комментарий, если Вы скачали Сокровища Ермака через торрент бесплатно! Внесите свою лепту в развитие PiratBit!
    Комментировать посты могут только пользователи прошедшие не сложную регистрацию
    Показать сообщения:    

    Сокровища Ермака через торрент
    Скачать бесплатно Сокровища Ермака
    Сокровища Ермака скачать торрент
    Сокровища Ермака смотреть онлайн
    Cкачать фильм Сокровища Ермака бесплатно
    Сокровища Ермака скачать торрент в хорошем качестве
    Сокровища Ермака смотреть онлайн бесплатно в хорошем качестве


    Вы не можете начинать темы
    Вы не можете отвечать на сообщения
    Вы не можете редактировать свои сообщения
    Вы не можете удалять свои сообщения
    Вы не можете голосовать в опросах
    Вы не можете прикреплять файлы к сообщениям
    Вы можете скачивать файлы