Ссылка на приватное зеркало нашего сайта всего за 1$. Внимание количество ограничено!!!

2 сезон

iTunes

iTunes

1

iTunes

iTunes

iTunes

WEBRip

iTunes

30
pack

Вам бонус

ВАЖНО

!!Акция!!

Alien_RageХит недели

RePack

Horizon Zero Dawn

ИГРА 18+

pack

RePack

jed

!!Акция!!

Alien_Rage

RePack

fifa19

RePack

Assassins Creed: Odyssey

RePack

NEED FOR SPEED™ PAYBACK

4 сезон

9 сезон

Бесстыжие 9 сезон

Все сериалы

все сериалы на PB.wtf

RePack

FAR CRY 5
  

Днюха! (Роман Каримов) [2018 г., Комедия, WEB-DL 1080p] piratbit.pw

Днюха! через торрент piratbit.pw

Раздают: 8 [ 0 KB/s ]
Размер: 3.39 GB | Добавлен: 2 года назад | Торрент скачан:1543 раза
Скачать  

20-09-2018 12:23 Днюха! Скачать торрент  

Днюха!
Год выпуска: 2018
Страна: Россия
Жанр: Комедия
Продолжительность: 01:31:40
Субтитры: Отсутствуют

Режиссер: Роман Каримов

В ролях: Эльдар Калимулин, Данила Чванов, Алина Титова, Никита Санаев, Ангелина Семашкова, Виктория Иванькова, Евгения Годунова, Ирина Савакова

Описание: Отгуляв днюху своего лучшего друга, Антон очнулся в другом городе. Он заперт в квартире незнакомой девушки, ничего не помнит, а жесткие видеоролики его вчерашних подвигов взрывают интернет. Компромат с бешеной скоростью набирает лайки, его в любой момент может увидеть девушка Антона — Марина, в отношениях с которой он уже сделал самый важный шаг

Качество: WEB-DL 1080p
Формат: MKV
Видео кодек: H.264
Аудио кодек: AC3
Видео: AVC/H.264, 1920x1080, 5106 kbps
Аудио#1: АС3, 2 ch, 48 kHz, 192 Kbps
скриншот   скриншот   скриншот   скриншот  

Общее
Уникальный идентификатор : 218660771230949801543411846718127690008 (0xA480885EDF8682119F61011B1CA55118)
Полное имя : D:\Днюха.2018.WEB-DL.[1080p].NNMClub.mkv
Формат : Matroska
Версия формата : Version 4
Размер файла : 3,39 Гбайт
Продолжительность : 1 ч. 31 м.
Общий поток : 5300 Кбит/сек
Название фильма : Днюха.2018.WEB-DL.[1080p].NNMClub
Дата кодирования : UTC 2018-09-20 11:41:13
Программа кодирования : mkvmerge v8.3.0 ('Over the Horizon') 64bit
Библиотека кодирования : libebml v1.3.1 + libmatroska v1.4.2

Видео
Идентификатор : 1
Формат : AVC
Формат/Информация : Advanced Video Codec
Профиль формата : High@L4
Настройки формата : CABAC / 4 Ref Frames
Параметр CABAC формата : Да
Параметр RefFrames формата : 4 кадра
Параметр GOP формата : M=7, N=50
Идентификатор кодека : V_MPEG4/ISO/AVC
Продолжительность : 1 ч. 31 м.
Битрейт : 5106 Кбит/сек
Ширина : 1920 пикселей
Высота : 1080 пикселей
Соотношение сторон : 16:9
Режим частоты кадров : Постоянный
Частота кадров : 25,000 кадров/сек
Цветовое пространство : YUV
Субдискретизация насыщенности : 4:2:0
Битовая глубина : 8 бит
Тип развёртки : Прогрессивная
Бит/(Пиксели*Кадры) : 0.098
Размер потока : 3,27 Гбайт (96%)
Язык : Russian
Default : Да
Forced : Нет

Аудио
Идентификатор : 2
Формат : AC-3
Формат/Информация : Audio Coding 3
Коммерческое название : Dolby Digital
Идентификатор кодека : A_AC3
Продолжительность : 1 ч. 31 м.
Вид битрейта : Постоянный
Битрейт : 192 Кбит/сек
Каналы : 2 канала
Channel layout : L R
Частота : 48,0 КГц
Частота кадров : 31,250 кадров/сек (1536 SPF)
Битовая глубина : 16 бит
Метод сжатия : С потерями
Размер потока : 126 Мбайт (4%)
Язык : Russian
ServiceKind/String : Complete Main
Default : Да
Forced : Нет

piratbit.pw



Скачать Днюха! через торрент http://pic1.kartinco.top/images/11/jq3zj.jpg Скачать фильм Днюха! через торрент бесплантно в хорошем качестве Описание: Отгуляв днюху своего лучшего друга, Антон очнулся в другом городе. Он заперт в квартире незнакомой девушки, ничего не помнит, а ... 9.3 10 29
Info! Золотая раздача, скачанное не засчитывается.
Торрент: Зарегистрирован [2018-09-20 12:23] · скачан: 1 543 раз
Статус: T временная
Размер: 3.39 GB
Как cкачать? Как скачать Днюха! через торрент | qTorrent

% Раздел Тема Автор DL S | L
T Наши фильмы (HD, WEB-DL 720p, 1080p) [ 1.77 GB ] ДНЮХА! [2018 WEB-DL 720p] bober100 Скачать
2 | 0
T Наши новые фильмы 2018-2019 [ 1.46 GB ] ДНЮХА! [2018 WEB-DLRip] bober100 Скачать
1 | 0
T Наши новые фильмы 2018-2019 [ 1.36 GB ] ДНЮХА! [2018 WEB-DLRip-AVC] bober100 Скачать
1 | 0
Наши новые фильмы 2018-2019 [ 699 MB ] Днюха! [2018 WEB-DLRip] Sherif Скачать
2 | 0
Секс с подростками [ 135 MB ] Подарок на днюху озабоченной малолетке / Dillian Lee [2006 All Sex Oral Teen DVDRip] Azazele Скачать
3 | 0
Секс с подростками [ 315 MB ] Порадовали на днюху замечательной групповухой / Nancy Lee Renata [1998 All Sex Oral Teen Anal DP GroupSex. DVDRip] Pir@tya2010 Скачать
1 | 0

28-11-2019 20:33  

Отключить всю рекламу на сайте

20-09-2018 12:34 Днюха! Скачать торрент  

Очередной российский высер, чтобы срубить бабла...piratbit.pw



20-09-2018 14:17 Днюха! Скачать торрент  

FlyLimit писал(а):

Очередной российский высер, чтобы срубить бабла...

никогда такого не было и вот опятьpiratbit.pw



20-09-2018 21:02 Днюха! Скачать торрент  

FlyLimit писал(а):

Очередной российский высер, чтобы срубить бабла...

Да как бы нет, у Каримова плохих фильмов вроде не было, это вам не Сарик Андреасян и Co. со своими высерами и "актерами" из камеди клаба.piratbit.pw



21-09-2018 05:57 Днюха! Скачать торрент  

david78 писал(а):

FlyLimit писал(а):

Очередной российский высер, чтобы срубить бабла...

Да как бы нет, у Каримова плохих фильмов вроде не было, это вам не Сарик Андреасян и Co. со своими высерами и "актерами" из камеди клаба.

Поддерживаю. Каримов-молодец!piratbit.pw



21-09-2018 18:53 Днюха! Скачать торрент  

Ржачный фильмpiratbit.pw



22-09-2018 17:06 Днюха! Скачать торрент  

Наш "кинематограф" запрещен к просмотру, стоящего уже давно не было, сплошной шлак. Веяние времени, идет дебилизация страны и ее молодого поколения!piratbit.pw



22-09-2018 21:49 Днюха! Скачать торрент  

Что за жесть, ссылка, откуда семпл можно скачать, больше похожа на вредоносный сайт! со всеми вытекающими?piratbit.pw



26-09-2018 18:24 Днюха! Скачать торрент  

В титрах базилевс - это взломать блоггеров 2.

Юмор на любителя.piratbit.pw



28-09-2018 23:10 Днюха! Скачать торрент  

Просто фильм для отмывания бабла, бюджет овердох.я толку ни..я(из полу часа фильма я увидел только кадры снятые на телефон).Для извращюг которые любят фильмы снятые на телефон+карта видеозахвата не советую, ибо фильм полное говно.Для остальных нормальных людей и так уже все понятно.1 /10
P.S. Автору за релиз спасибо piratbit.pw



12-07-2020 16:36 Днюха! Скачать торрент  

Фильм нормальный, разок посмотреть можно.
Но съёмка как-бы на телефон, так называемое мобильное кино, бесконечная переписка эта, вк, скайп, ютуб, фотки, статусы, и т.д., из чего и состоит весь фильм, напрягают.
Вместо того чтобы смотреть кино и получать удовольствие, сидишь и весь фильм читаешь сообщения, вот это не понравилось.piratbit.pw



    Дорогой пользователь! Огромная просьба, поблагодарите релизера, оцените раздачу и оставьте свои комментарий, если Вы скачали Днюха! через торрент бесплатно! Внесите свою лепту в развитие PiratBit!
    Комментировать посты могут только пользователи прошедшие не сложную регистрацию
    Показать сообщения:    

    Днюха! через торрент
    Скачать бесплатно Днюха!
    Днюха! скачать торрент
    Днюха! смотреть онлайн
    Cкачать фильм Днюха! бесплатно
    Днюха! скачать торрент в хорошем качестве
    Днюха! смотреть онлайн бесплатно в хорошем качестве


    Вы не можете начинать темы
    Вы не можете отвечать на сообщения
    Вы не можете редактировать свои сообщения
    Вы не можете удалять свои сообщения
    Вы не можете голосовать в опросах
    Вы не можете прикреплять файлы к сообщениям
    Вы можете скачивать файлы