Ссылка на приватное зеркало нашего сайта всего за 1$. Внимание количество ограничено!!!

2 сезон

iTunes

iTunes

1

iTunes

iTunes

iTunes

WEBRip

iTunes

30
pack

Вам бонус

ВАЖНО

!!Акция!!

Alien_RageХит недели

RePack

Horizon Zero Dawn

ИГРА 18+

pack

RePack

jed

!!Акция!!

Alien_Rage

RePack

fifa19

RePack

Assassins Creed: Odyssey

RePack

NEED FOR SPEED™ PAYBACK

4 сезон

9 сезон

Бесстыжие 9 сезон

Все сериалы

все сериалы на PB.wtf

RePack

FAR CRY 5
  

Потерянное счастье (Глеб Якубовский) [2018, мелодрама, HDTV 1080p] Не требуется [Русский] R.G.Generalfilm piratbit.pw

Потерянное счастье через торрент piratbit.pw

Размер: 4.54 GB | Добавлен: 2 года назад | Торрент скачан:31 раз
Скачать  

15-09-2018 18:03 Потерянное счастье Скачать торрент  


Потерянное счастье


Год выпуска: 2018
Страна: Россия
Жанр: мелодрама
Продолжительность: 01:29:48
Перевод: Не требуется [Русский]
Режиссер: Глеб Якубовский
В ролях:

Ксения Кузнецова (Валентина Бондаренко), Анжелика Маркелова, Алексей Фатеев, Мария Звонарева (Тамара), Светлана Тимофеева-Летуновская, Зоя Лирова, Виталия Корниенко, Игорь Климов, Павел Савинов (Антон), Наталья Панюшева (Татьяна, повариха)
Описание:
Валентина Бондаренко живет в маленьком шахтерском городке вместе с любимым мужем Михаилом, дочкой Лизой и матерью. Внезапно в шахте происходит взрыв метана, и Михаил погибает. Теперь Вале одной придется поднимать дочь, обеспечивать себя и мать. Подруга Тамара предлагает ей отправиться в Москву в поисках лучшей жизни. Валя уезжает в надежде, что через полгода перевезет в столицу родных...

Качество: HDTV 1080p Запись с
Формат: MKV
Видео кодек: AVC
Аудио кодек: AC3
Видео: AVC, 1920x1080 (16:9), 7050 kbps, 25 fps, 0,136 bpp
Аудио: AC3 / 2.0 / 48 kHz / 192 kbps /
General
Unique ID : 214496091561763507885590662498591642696 (0xA15E71CF4AE1D95A8522F11751471448)
Complete name : E:\Запись с тв\Poteryannoe schaste.2018.HDTV 1080p.by.White Smoke.R.G.Generalfilm.mkv
Format : Matroska
Format version : Version 4 / Version 2
File size : 4.54 GiB
Duration : 1 h 29 min
Overall bit rate mode : Constant
Overall bit rate : 7 238 kb/s
Movie name : Poteryannoe schaste.2018.HDTV 1080p.by.White Smoke.R.G.Generalfilm.mkv
Encoded date : UTC 2018-09-15 17:41:51
Writing application : mkvmerge v6.8.0 ('Theme for Great Cities') 64bit built on Mar 2 2014 21:34:26
Writing library : libebml v1.3.0 + libmatroska v1.4.1
Cover : Yes
Attachments : cover.jpg

Video
ID : 1
Format : AVC
Format/Info : Advanced Video Codec
Format profile : High@L4.1
Format settings, CABAC : Yes
Format settings, ReFrames : 3 frames
Codec ID : V_MPEG4/ISO/AVC
Duration : 1 h 29 min
Bit rate mode : Constant
Bit rate : 7 051 kb/s
Width : 1 920 pixels
Height : 1 080 pixels
Display aspect ratio : 16:9
Frame rate mode : Constant
Frame rate : 25.000 FPS
Standard : PAL
Color space : YUV
Chroma subsampling : 4:2:0
Bit depth : 8 bits
Scan type : Progressive
Bits/(Pixel*Frame) : 0.136
Stream size : 4.33 GiB (95%)
Default : Yes
Forced : No
Color range : Limited
Color primaries : BT.709
Transfer characteristics : BT.709
Matrix coefficients : BT.709

Audio
ID : 2
Format : AC-3
Format/Info : Audio Coding 3
Mode extension : CM (complete main)
Format settings, Endianness : Big
Codec ID : A_AC3
Duration : 1 h 29 min
Bit rate mode : Constant
Bit rate : 192 kb/s
Channel(s) : 2 channels
Channel positions : Front: L R
Sampling rate : 48.0 kHz
Frame rate : 31.250 FPS (1536 spf)
Compression mode : Lossy
Stream size : 123 MiB (3%)
Default : Yes
Forced : No
piratbit.pw



Скачать Потерянное счастье через торрент http://interhit.org/img/2018-05/27/95e0rpzgd7ieqwngygkarjw3v.gif Скачать фильм Потерянное счастье через торрент бесплантно в хорошем качестве Описание: Валентина Бондаренко живет в маленьком шахтерском городке вместе с любимым мужем Михаилом, дочкой Лизой и матерью. Внезапно в ... 10 10 2
Info! Золотая раздача, скачанное не засчитывается.
Торрент: Зарегистрирован [2018-09-15 18:03] · скачан: 31 раз
Статус: √ проверено
Размер: 4.54 GB
Как cкачать? Как скачать Потерянное счастье через торрент | qTorrent

28-11-2019 20:33  

Отключить всю рекламу на сайте

    Дорогой пользователь! Огромная просьба, поблагодарите релизера, оцените раздачу и оставьте свои комментарий, если Вы скачали Потерянное счастье через торрент бесплатно! Внесите свою лепту в развитие PiratBit!
    Комментировать посты могут только пользователи прошедшие не сложную регистрацию
    Показать сообщения:    

    Потерянное счастье через торрент
    Скачать бесплатно Потерянное счастье
    Потерянное счастье скачать торрент
    Потерянное счастье смотреть онлайн
    Cкачать фильм Потерянное счастье бесплатно
    Потерянное счастье скачать торрент в хорошем качестве
    Потерянное счастье смотреть онлайн бесплатно в хорошем качестве


    Вы не можете начинать темы
    Вы не можете отвечать на сообщения
    Вы не можете редактировать свои сообщения
    Вы не можете удалять свои сообщения
    Вы не можете голосовать в опросах
    Вы не можете прикреплять файлы к сообщениям
    Вы можете скачивать файлы